<?xml version="1.0" standalone="no"?>
<!DOCTYPE svg PUBLIC "-//W3C//DTD SVG 1.1//EN" "http://www.w3.org/Graphics/SVG/1.1/DTD/svg11.dtd" >
<svg>
<metadata>
Created by FontForge 20090914 at Fri Jul  8 22:10:33 2016
 By www-data
&#194;&#169; 2015 Microsoft Corporation. All Rights Reserved.
</metadata>
<defs>
<font id="Georgia-Italic" horiz-adv-x="1024" >
  <font-face 
    font-family="Georgia"
    font-weight="400"
    font-style="italic"
    font-stretch="normal"
    units-per-em="2048"
    panose-1="2 4 5 2 5 4 5 9 3 3"
    ascent="1638"
    descent="-410"
    x-height="979"
    cap-height="1419"
    bbox="-401.005 -621 2451 1998"
    underline-thickness="96"
    underline-position="-135"
    slope="-13"
    unicode-range="U+0020-U+FB04"
  />
<missing-glyph horiz-adv-x="2048" 
d="M256 0v1536h1536v-1536h-1536zM384 128h1280v1280h-1280v-1280z" />
    <glyph glyph-name=".notdef" horiz-adv-x="2048" 
d="M256 0v1536h1536v-1536h-1536zM384 128h1280v1280h-1280v-1280z" />
    <glyph glyph-name="space" unicode=" " horiz-adv-x="494" 
 />
    <glyph glyph-name="space" unicode="&#xa0;" horiz-adv-x="494" 
 />
    <glyph glyph-name="exclam" unicode="!" horiz-adv-x="678" 
d="M667 1356c0 -12 -1.99902 -27.834 -5.99902 -47.501s-11.333 -45.167 -22 -76.5l-115.5 -336l-156.5 -464h-78c22.667 154 46.167 331.833 70.5 533.5s40.166 320.167 47.499 355.5c8.66699 40.667 28.167 73.334 58.5 98.001s63.833 37 100.5 37
c32 0 56.833 -9.33301 74.5 -28s26.5 -42.667 26.5 -72zM410.001 114.999c0 -37.333 -13.5 -69.166 -40.5 -95.499s-59.167 -39.5 -96.5 -39.5s-69.5 13.167 -96.5 39.5s-40.5 58.166 -40.5 95.499s13.5 69.5 40.5 96.5s59.167 40.5 96.5 40.5s69.5 -13.5 96.5 -40.5
s40.5 -59.167 40.5 -96.5z" />
    <glyph glyph-name="quotedbl" unicode="&#x22;" horiz-adv-x="843" 
d="M908 1441c0 -26 -18.5 -81.832 -55.5 -167.499s-77.5 -187.834 -121.5 -306.501h-61c3.33301 113.333 5 209.333 5 288s2.66699 132.667 8 162c5.33301 30 20 56.167 44 78.5s53.667 33.5 89 33.5c31.333 0 54.5 -8.5 69.5 -25.5s22.5 -37.833 22.5 -62.5zM532 1441
c0 -26 -18.5 -81.832 -55.5 -167.499s-77.5 -187.834 -121.5 -306.501h-61c3.33301 113.333 5 209.333 5 288s2.66699 132.667 8 162c5.33301 30 20 56.167 44 78.5s53.667 33.5 89 33.5c31.333 0 54.5 -8.5 69.5 -25.5s22.5 -37.833 22.5 -62.5z" />
    <glyph glyph-name="numbersign" unicode="#" horiz-adv-x="1317" 
d="M1180 745h-232l-94 -251h261l-28 -123h-279l-139 -371h-111l139 371h-217l-139 -371h-111l139 371h-214l28 123h232l95 251h-262l28 123h279l137 362h111l-137 -362h217l137 362h111l-137 -362h214zM841 747h-222l-96 -255h221z" />
    <glyph glyph-name="dollar" unicode="$" horiz-adv-x="1249" 
d="M1181 1053c0 -36.667 -9.83398 -70.3301 -29.501 -100.997s-47.834 -46 -84.501 -46c-33.333 0 -59.833 7.5 -79.5 22.5s-29.5 35.5 -29.5 61.5c0 18 6.83301 40.833 20.5 68.5s24.5 51.5 32.5 71.5c-1.33301 4.66699 -5.66602 12.334 -12.999 23.001
s-16.666 20.334 -27.999 29.001c-12 9.33301 -28 17.666 -48 24.999s-46.667 12.333 -80 15l-110 -482l57.5 -23l58.5 -24c77.333 -32.667 136.333 -73 177 -121s61 -103 61 -165c0 -118 -50.333 -217.333 -151 -298s-227 -123.334 -379 -128.001l-63 -280h-92l67 278
c-109.333 5.33301 -197.166 33.166 -263.499 83.499s-99.5 112.5 -99.5 186.5c0 48 12.667 88.833 38 122.5s57 50.5 95 50.5c33.333 0 58.833 -8.5 76.5 -25.5s26.5 -37.833 26.5 -62.5c0 -24 -10.167 -53.167 -30.5 -87.5s-34.833 -57.833 -43.5 -70.5
c12 -36.667 36 -64.834 72 -84.501s84.333 -31.834 145 -36.501l121 522l-75.5 29c-22.333 8.66699 -45.833 18.667 -70.5 30c-60 26.667 -107 62.167 -141 106.5s-51 96.5 -51 156.5c0 116.667 50.667 212.167 152 286.5s218.666 111.5 351.999 111.5l51 227h92l-55 -227
c98 -10 176.167 -37.5 234.5 -82.5s87.5 -98.833 87.5 -161.5zM753.999 1220c-98 0 -173.168 -22.667 -225.501 -68s-78.5 -104.666 -78.5 -177.999c0 -44.667 11.333 -81.334 34 -110.001s56.334 -53 101.001 -73l29 -13c12 -5.33301 23.333 -10 34 -14zM894.998 332.004
c0 46 -12.501 85.668 -37.501 119.001s-64.833 61.666 -119.5 84.999c-7.33301 3.33301 -15.666 6.5 -24.999 9.5s-17.333 5.83301 -24 8.5l-117 -500c95.333 0 173 24 233 72s90 116.667 90 206z" />
    <glyph glyph-name="percent" unicode="%" horiz-adv-x="1674" 
d="M884 1172c0 -128 -39.332 -236.501 -117.999 -325.501s-179 -133.5 -301 -133.5c-88 0 -156.5 24.833 -205.5 74.5s-73.5 117.834 -73.5 204.501c0 59.333 10 116.333 30 171s47.333 103 82 145c36 43.333 80.167 78.333 132.5 105s111.166 40 176.499 40
c88 0 156.167 -25.333 204.5 -76s72.5 -119 72.5 -205zM720.001 1197c0 54 -10.167 99.001 -30.5 135.001s-52.5 54 -96.5 54c-70 0 -127.667 -40.5 -173 -121.5s-68 -180.5 -68 -298.5c0 -52 10 -96 30 -132s52.667 -54 98 -54c66 0 122.5 40.667 169.5 122
s70.5 179.666 70.5 294.999zM1559 428c0 -128 -39.332 -236.501 -117.999 -325.501s-179 -133.5 -301 -133.5c-88 0 -156.5 24.833 -205.5 74.5s-73.5 117.834 -73.5 204.501c0 59.333 10 116.333 30 171s47.333 103 82 145c36 43.333 80.167 78.333 132.5 105
s111.166 40 176.499 40c88 0 156.167 -25.333 204.5 -76s72.5 -119 72.5 -205zM1395 452.999c0 54 -10.167 99.001 -30.5 135.001s-52.5 54 -96.5 54c-70 0 -127.667 -40.5 -173 -121.5s-68 -180.5 -68 -298.5c0 -52 10 -96 30 -132s52.667 -54 98 -54
c66 0 122.5 40.667 169.5 122s70.5 179.666 70.5 294.999zM1676 1424l-1458 -1424h-144l1455 1424h147z" />
    <glyph glyph-name="ampersand" unicode="&#x26;" horiz-adv-x="1455" 
d="M1540 899l-15.999 -65.999c-28.667 -2.66699 -65.667 -9.33398 -111 -20.001s-85 -31.334 -119 -62.001c-16.667 -15.333 -36.667 -39.166 -60 -71.499l-84 -116.5l-96.5 -129c-39.667 -52 -75.834 -94.667 -108.501 -128c24.667 -40 50.334 -76.667 77.001 -110
s51.334 -57.666 74.001 -72.999c23.333 -16 58.166 -29.167 104.499 -39.5s85.166 -16.166 116.499 -17.499l-17 -66h-384l-114 181l-89.5 -77c-29.667 -24.667 -64.5 -48 -104.5 -70c-40 -22.667 -79.333 -39.834 -118 -51.501s-79 -17.5 -121 -17.5
c-101.333 0 -185.166 28.667 -251.499 86s-99.5 135.333 -99.5 234c0 102 35.167 192.5 105.5 271.5s178.5 156.167 324.5 231.5c-30.667 58 -54.5 109 -71.5 153s-25.5 90 -25.5 138c0 56.667 11 108 33 154s51.667 85.667 89 119c35.333 31.333 78.666 56 129.999 74
s103 27 155 27c77.333 0 141.333 -21.167 192 -63.5s76 -100.166 76 -173.499c0 -82.667 -27.833 -155 -83.5 -217s-153.5 -126.333 -293.5 -193l125 -227c34 -60 78 -133 132 -219c34.667 39.333 66 78.166 94 116.499s56.667 81.833 86 130.5
c18.667 31.333 33.167 60 43.5 86s15.5 47.333 15.5 64c0 17.333 -13.5 31.666 -40.5 42.999s-65.5 22.333 -115.5 33l16 66h535zM893.001 1213c0 49.333 -12.8311 87.8311 -38.498 115.498s-62.834 41.5 -111.501 41.5c-63.333 0 -114.333 -22.667 -153 -68
s-58 -99.666 -58 -162.999c0 -43.333 7.66699 -86.833 23 -130.5s36.666 -92.167 63.999 -145.5c96.667 47.333 166.5 98.833 209.5 154.5s64.5 120.834 64.5 195.501zM764.003 235.999l-153.998 258.502c-46.667 80.333 -90.334 159.166 -131.001 236.499
c-76 -40.667 -135 -93.834 -177 -159.501s-63 -138.5 -63 -218.5c0 -78 20.167 -139.833 60.5 -185.5s97.166 -68.5 170.499 -68.5c53.333 0 105 12 155 36s96.333 57.667 139 101z" />
    <glyph glyph-name="quotesingle" unicode="'" horiz-adv-x="441" 
d="M519 1441c0 -26 -18.5 -81.832 -55.5 -167.499s-77.5 -187.834 -121.5 -306.501h-61c3.33301 113.333 5 209.333 5 288s2.66699 132.667 8 162c5.33301 30 20 56.167 44 78.5s53.667 33.5 89 33.5c31.333 0 54.5 -8.5 69.5 -25.5s22.5 -37.833 22.5 -62.5z" />
    <glyph glyph-name="parenleft" unicode="(" horiz-adv-x="768" 
d="M910 1532l-15.999 -81.002c-86 -15.333 -166.833 -60.166 -242.5 -134.499s-141.834 -174.833 -198.501 -301.5c-50 -110.667 -89 -238 -117 -382s-42 -281.333 -42 -412c0 -131.333 20.833 -239 62.5 -323s109.167 -134.667 202.5 -152l-17 -74
c-138 17.333 -245 79.333 -321 186s-114 250.334 -114 431.001c0 332 77.167 614.5 231.5 847.5s344.833 364.833 571.5 395.5z" />
    <glyph glyph-name="parenright" unicode=")" horiz-adv-x="768" 
d="M712 915c0 -332 -77.167 -614.498 -231.5 -847.498s-344.833 -364.833 -571.5 -395.5l16 81c86 15.333 166.833 60.166 242.5 134.499s141.834 174.833 198.501 301.5c49.333 110.667 88.166 238 116.499 382s42.5 281.333 42.5 412c0 131.333 -20.833 239 -62.5 323
s-109.167 134.667 -202.5 152l17 74c138 -17.333 245 -79.333 321 -186s114 -250.334 114 -431.001z" />
    <glyph glyph-name="asterisk" unicode="*" horiz-adv-x="967" 
d="M1008 1099c0 -24.667 -6.99805 -42.6689 -20.998 -54.002s-32 -17 -54 -17c-14.667 0 -49.834 7.16699 -105.501 21.5s-118.167 25.5 -187.5 33.5c30 -41.333 58 -75.833 84 -103.5l65 -69.5c18 -19.333 32 -36.333 42 -51s15 -30.334 15 -47.001
c0 -18 -8 -33.667 -24 -47s-33 -20 -51 -20c-12 0 -23.333 3.5 -34 10.5s-19.667 16.833 -27 29.5c-10.667 19.333 -21.167 50.333 -31.5 93s-33.166 105.334 -68.499 188.001c-32 -79.333 -54.333 -142.166 -67 -188.499s-23.667 -77.166 -33 -92.499
c-8.66699 -13.333 -17.5 -23.333 -26.5 -30s-20.5 -10 -34.5 -10c-18.667 0 -35.834 6.33301 -51.501 19s-23.5 28.667 -23.5 48c0 16 4.66699 31 14 45s23.666 31.667 42.999 53l66.5 71c27.667 30 55.167 64 82.5 102c-65.333 -6.66699 -126.166 -17.5 -182.499 -32.5
s-93.166 -22.5 -110.499 -22.5c-22 0 -40 5.5 -54 16.5s-21 29.167 -21 54.5c0 22.667 7 40.167 21 52.5s32 18.5 54 18.5c20 0 55.167 -7 105.5 -21s112.833 -24.667 187.5 -32c-26 35.333 -53.333 68.833 -82 100.5l-67 72.5c-18.667 20 -32.834 37.167 -42.501 51.5
s-14.5 29.833 -14.5 46.5c0 18 8 33.667 24 47s33 20 51 20c12 0 23.167 -3.33301 33.5 -10s19.5 -16.667 27.5 -30c9.33301 -16 21.666 -51.833 36.999 -107.5s36.333 -113.5 63 -173.5c30 68 51.833 127.5 65.5 178.5s25.167 85.167 34.5 102.5
c7.33301 12.667 16.166 22.5 26.499 29.5s21.833 10.5 34.5 10.5c18.667 0 35.834 -6.33301 51.501 -19s23.5 -28.667 23.5 -48c0 -27.333 -18.5 -59.333 -55.5 -96s-87.167 -95 -150.5 -175c72 8 134.5 18.833 187.5 32.5s88.167 20.5 105.5 20.5c22 0 40 -6 54 -18
s21 -29.667 21 -53z" />
    <glyph glyph-name="plus" unicode="+" horiz-adv-x="1317" 
d="M1198 497h-451v-451h-127v451h-451v125h451v451h127v-451h451v-125z" />
    <glyph glyph-name="comma" unicode="," horiz-adv-x="552" 
d="M413 98c0 -56.667 -12.999 -109.5 -38.999 -158.5s-59.333 -93.167 -100 -132.5c-38.667 -38 -78.667 -70.5 -120 -97.5s-78 -48.167 -110 -63.5l-32 67c30.667 16.667 61.667 35.5 93 56.5s57.666 42.167 78.999 63.5c26.667 26 49.167 51.667 67.5 77
s32.833 56 43.5 92h-47c-40.667 0 -71.167 10.167 -91.5 30.5s-30.5 46.833 -30.5 79.5c0 34.667 13.333 66.667 40 96s62.667 44 108 44c48.667 0 84 -14.167 106 -42.5s33 -65.5 33 -111.5z" />
    <glyph glyph-name="hyphen" unicode="-" horiz-adv-x="766" 
d="M711 620l-36 -152h-596l36 152h596z" />
    <glyph glyph-name="hyphen" unicode="&#xad;" horiz-adv-x="766" 
d="M711 620l-36 -152h-596l36 152h596z" />
    <glyph glyph-name="period" unicode="." horiz-adv-x="552" 
d="M400 115c0 -37.333 -13.5 -69.166 -40.5 -95.499s-59.167 -39.5 -96.5 -39.5s-69.5 13.167 -96.5 39.5s-40.5 58.166 -40.5 95.499s13.5 69.5 40.5 96.5s59.167 40.5 96.5 40.5s69.5 -13.5 96.5 -40.5s40.5 -59.167 40.5 -96.5z" />
    <glyph glyph-name="slash" unicode="/" horiz-adv-x="960" 
d="M1055 1523l-1033 -1947h-138l1031 1947h140z" />
    <glyph glyph-name="zero" unicode="0" horiz-adv-x="1257" 
d="M1205 697c0 -95.333 -17.1709 -187.333 -51.5039 -276s-81.166 -165.667 -140.499 -231c-62.667 -68.667 -134 -122.834 -214 -162.501s-171.333 -59.5 -274 -59.5c-133.333 0 -237.666 38.333 -312.999 115s-113 172.667 -113 288c0 100.667 17.5 195.167 52.5 283.5
s83.5 166.5 145.5 234.5c60.667 66.667 132.834 119.334 216.501 158.001s172.167 58 265.5 58c136.667 0 241.834 -39.5 315.501 -118.5s110.5 -175.5 110.5 -289.5zM991.996 742c0 94.667 -20.167 166.333 -60.5 215s-95.833 73 -166.5 73
c-73.333 0 -139.333 -22.5 -198 -67.5s-108 -107.833 -148 -188.5c-34.667 -70 -61.167 -145.333 -79.5 -226s-27.5 -154 -27.5 -220c0 -89.333 19.333 -159.166 58 -209.499s95.667 -75.5 171 -75.5c69.333 0 133 20.5 191 61.5s109 105.5 153 193.5
c37.333 74 64.5 150.667 81.5 230s25.5 150.666 25.5 213.999z" />
    <glyph glyph-name="one" unicode="1" horiz-adv-x="880" 
d="M716 1105l-45.998 -171.499c-16.667 -64.333 -28 -109.833 -34 -136.5l-138 -598c-1.33301 -5.33301 -2.33301 -11 -3 -17s-1 -11.667 -1 -17c0 -17.333 4 -31.833 12 -43.5s17.667 -20.167 29 -25.5c13.333 -6.66699 38.666 -13 75.999 -19s67.333 -9.66699 90 -11
l-16 -66h-674l16 66c20.667 1.33301 52.5 4.16602 95.5 8.49902s73.167 8.83301 90.5 13.5c18 5.33301 35.667 17.166 53 35.499s28.666 39.833 33.999 64.5l164 712h-249l18 79h55c69.333 0 134.333 11.833 195 35.5s110.667 53.834 150 90.501h83z" />
    <glyph glyph-name="two" unicode="2" horiz-adv-x="1144" 
d="M1076 792c0 -73.333 -18.001 -135.165 -54.001 -185.498s-85 -93.166 -147 -128.499c-46.667 -26.667 -100.834 -50.167 -162.501 -70.5s-129.5 -41.5 -203.5 -63.5c-63.333 -18.667 -124.5 -41.834 -183.5 -69.501s-107.5 -61.167 -145.5 -100.5h797l-41 -174h-937
l33 136c20 26.667 44 52.667 72 78s61 50 99 74c33.333 20.667 70.5 41 111.5 61s85.5 39.333 133.5 58c62 24 116.167 47.5 162.5 70.5s85.5 46.5 117.5 70.5c48.667 36 83.167 75.167 103.5 117.5s30.5 91.833 30.5 148.5c0 66 -18 118.167 -54 156.5
s-82.667 57.5 -140 57.5c-55.333 0 -102.333 -9.66699 -141 -29s-65.667 -40 -81 -62c0 -8 0.5 -19.333 1.5 -34s1.5 -32.334 1.5 -53.001c0 -60 -11.667 -104.833 -35 -134.5s-60.666 -44.5 -111.999 -44.5c-36.667 0 -62.167 8.5 -76.5 25.5s-21.5 37.833 -21.5 62.5
c0 39.333 12.167 79.166 36.5 119.499s58.833 77.833 103.5 112.5c43.333 34 95.333 61.5 156 82.5s126.334 31.5 197.001 31.5c113.333 0 204.833 -28 274.5 -84s104.5 -132.333 104.5 -229z" />
    <glyph glyph-name="three" unicode="3" horiz-adv-x="1130" 
d="M997 1007c24.667 -26.667 42.167 -55.9951 52.5 -87.9951s15.5 -63.333 15.5 -94c0 -33.333 -7 -70.5 -21 -111.5s-34 -77.5 -60 -109.5c-28.667 -35.333 -66.667 -67.833 -114 -97.5s-105.333 -53.5 -174 -71.5l-6 -16c32 -2.66699 65.833 -9.83398 101.5 -21.501
s67.5 -27.5 95.5 -47.5c29.333 -21.333 53.333 -48.833 72 -82.5s28 -73.834 28 -120.501c0 -76 -17.5 -145.833 -52.5 -209.5s-80.833 -117.167 -137.5 -160.5c-59.333 -45.333 -126.5 -80.333 -201.5 -105s-155.167 -37 -240.5 -37c-107.333 0 -196 23.833 -266 71.5
s-105 106.5 -105 176.5c0 43.333 12.333 81.666 37 114.999s57.667 50 99 50c36.667 0 63.667 -8.83301 81 -26.5s26 -37.5 26 -59.5c0 -28.667 -7.66699 -58.167 -23 -88.5s-27.666 -55.5 -36.999 -75.5c3.33301 -4.66699 10 -12 20 -22s24 -19.667 42 -29
s40.5 -17.5 67.5 -24.5s58.167 -10.5 93.5 -10.5c44 0 89.5 10.167 136.5 30.5s88.167 48.833 123.5 85.5c37.333 39.333 67.333 86.166 90 140.499s34 119.5 34 195.5c0 61.333 -20.167 108.166 -60.5 140.499s-99.5 48.5 -177.5 48.5h-134l26 111h89
c102.667 0 184 36.167 244 108.5s90 162.166 90 269.499c0 60.667 -15.333 106.834 -46 138.501s-76.334 47.5 -137.001 47.5c-46.667 0 -89 -8.83301 -127 -26.5s-67 -37.5 -87 -59.5c0 -7.33301 0.333008 -18.833 1 -34.5s1 -32.5 1 -50.5c0 -64 -13.333 -111 -40 -141
s-66.667 -45 -120 -45c-32.667 0 -55.5 8.5 -68.5 25.5s-19.5 38.167 -19.5 63.5c0 38.667 11.333 77 34 115s57.334 75.333 104.001 112c41.333 32.667 94.666 60.5 159.999 83.5s135.333 34.5 210 34.5c68 0 125.167 -9.16699 171.5 -27.5s82.833 -41.833 109.5 -70.5z
" />
    <glyph glyph-name="four" unicode="4" horiz-adv-x="1157" 
d="M1102 216l-30 -126h-210l-105 -455h-192l105 455h-643l40 164l887 845h141l-204 -883h211zM851 876l-696 -660h544z" />
    <glyph glyph-name="five" unicode="5" horiz-adv-x="1082" 
d="M1114 1073l-43.0029 -176.001h-635l-137 -426c35.333 22 77.833 43 127.5 63s105.167 30 166.5 30c45.333 0 89 -5.66699 131 -17s82.333 -31 121 -59c37.333 -26.667 67.5 -61 90.5 -103s34.5 -94.333 34.5 -157c0 -82.667 -17.167 -160.5 -51.5 -233.5
s-81.5 -136.167 -141.5 -189.5c-60.667 -54 -127.5 -95.833 -200.5 -125.5s-151.5 -44.5 -235.5 -44.5c-105.333 0 -192.833 23.333 -262.5 70s-104.5 103.334 -104.5 170.001c0 43.333 12.833 80.833 38.5 112.5s57.834 47.5 96.501 47.5s66.334 -9.16699 83.001 -27.5
s25 -38.166 25 -59.499c0 -26 -7.66699 -55 -23 -87l-35 -72c16 -20.667 40 -38.667 72 -54s76.333 -23 133 -23c100.667 0 191.334 47.333 272.001 142s121 213 121 355c0 72 -21 131.333 -63 178s-99 70 -171 70c-68 0 -126.833 -12.833 -176.5 -38.5
s-92.167 -56.834 -127.5 -93.501l-66 26l239 722h722z" />
    <glyph glyph-name="six" unicode="6" horiz-adv-x="1159" 
d="M1093 546c0 -77.333 -15.166 -151.5 -45.499 -222.5s-71.166 -132.5 -122.499 -184.5c-53.333 -54 -115 -96 -185 -126s-143.667 -45 -221 -45c-126 0 -226.333 39.833 -301 119.5s-112 191.5 -112 335.5c0 130 24.833 253.333 74.5 370s118.5 221.667 206.5 315
c85.333 90.667 188 166.5 308 227.5s246 100.5 378 118.5v-94l-90 -11c-144.667 -38 -270.334 -109 -377.001 -213s-184.334 -226.667 -233.001 -368c66 50 130.5 85.833 193.5 107.5s126.167 32.5 189.5 32.5c94 0 173.667 -34.167 239 -102.5s98 -154.833 98 -259.5z
M880.001 518c0 85.333 -20.333 153.17 -61 203.503s-96.667 75.5 -168 75.5c-56.667 0 -109.5 -11.5 -158.5 -34.5s-94.833 -53.833 -137.5 -92.5c-6.66699 -18.667 -15.334 -54.834 -26.001 -108.501s-16 -112.834 -16 -177.501c0 -110.667 19.5 -195.334 58.5 -254.001
s94.5 -88 166.5 -88c92.667 0 172.834 46.5 240.501 139.5s101.5 205.167 101.5 336.5z" />
    <glyph glyph-name="seven" unicode="7" horiz-adv-x="1017" 
d="M1180 1073l-14.998 -65.001l-1020 -1373h-131l962 1275h-390c-58 0 -103.5 -0.666992 -136.5 -2s-64.5 -7.66602 -94.5 -18.999c-22.667 -8.66699 -45.834 -31 -69.501 -67s-46.834 -83 -69.501 -141h-66l90 392h940z" />
    <glyph glyph-name="eight" unicode="8" horiz-adv-x="1221" 
d="M1206 1151c0 -82 -28.335 -158.498 -85.002 -229.498s-140 -129.833 -250 -176.5c87.333 -42 150.666 -89.5 189.999 -142.5s59 -111.167 59 -174.5c0 -126.667 -58.167 -235.334 -174.5 -326.001s-258.166 -136 -425.499 -136c-133.333 0 -237.666 31.333 -312.999 94
s-113 141.667 -113 237c0 98 31.333 182.5 94 253.5s161.667 131.167 297 180.5c-66 42.667 -114.833 89.167 -146.5 139.5s-47.5 103.166 -47.5 158.499c0 116 54.5 216.167 163.5 300.5s234.5 126.5 376.5 126.5c114.667 0 205.834 -29 273.501 -87
s101.5 -130.667 101.5 -218zM1014 1163c0 63.333 -18 115.668 -54 157.001s-88.667 62 -158 62c-87.333 0 -161.5 -28.333 -222.5 -85s-91.5 -127.667 -91.5 -213c0 -68 25.833 -124.333 77.5 -169s132.5 -89.334 242.5 -134.001c64.667 36 115.167 89.667 151.5 161
s54.5 145 54.5 221zM919.998 369.004c0 36.667 -7.6709 69.333 -23.0039 98s-38.666 55.667 -69.999 81s-70.666 50 -117.999 74s-100.666 48.667 -159.999 74c-84 -41.333 -147.667 -96 -191 -164s-65 -144 -65 -228c0 -77.333 23.5 -140.5 70.5 -189.5
s111.5 -73.5 193.5 -73.5c108.667 0 196.334 32.167 263.001 96.5s100 141.5 100 231.5z" />
    <glyph glyph-name="nine" unicode="9" horiz-adv-x="1159" 
d="M1108 666c0 -131.333 -24.501 -256.334 -73.501 -375.001s-116.833 -224 -203.5 -316c-85.333 -90.667 -188.833 -167 -310.5 -229s-252.167 -100.667 -391.5 -116v97l94 9c156.667 44 285.5 112.833 386.5 206.5s177.167 212.5 228.5 356.5
c-68.667 -50.667 -133.667 -85.167 -195 -103.5s-124 -27.5 -188 -27.5c-94.667 0 -174 33.833 -238 101.5s-96 154.5 -96 260.5c0 74 14.667 145.333 44 214s70 130.334 122 185.001c50 52 110.833 94.5 182.5 127.5s146.834 49.5 225.501 49.5
c123.333 0 223 -39.333 299 -118s114 -186 114 -322zM900.999 705.999c0 100.667 -20.668 180.166 -62.001 238.499s-95 87.5 -161 87.5c-58.667 0 -109.667 -16.667 -153 -50s-79.666 -75 -108.999 -125c-28.667 -48.667 -49.5 -101.667 -62.5 -159s-19.5 -108 -19.5 -152
c0 -79.333 20.833 -143.666 62.5 -192.999s96.834 -74 165.501 -74c51.333 0 102.333 9.5 153 28.5s98.667 49.5 144 91.5c7.33301 23.333 16.166 60 26.499 110s15.5 115.667 15.5 197z" />
    <glyph glyph-name="colon" unicode=":" horiz-adv-x="786" 
d="M612 853c0 -37.333 -13.5 -69.333 -40.5 -96s-59.167 -40 -96.5 -40s-69.5 13.333 -96.5 40s-40.5 58.667 -40.5 96s13.333 69.5 40 96.5s59 40.5 97 40.5s70.333 -13.5 97 -40.5s40 -59.167 40 -96.5zM447 115c0 -37.333 -13.5 -69.166 -40.5 -95.499
s-59.167 -39.5 -96.5 -39.5s-69.5 13.167 -96.5 39.5s-40.5 58.166 -40.5 95.499s13.5 69.5 40.5 96.5s59.167 40.5 96.5 40.5s69.5 -13.5 96.5 -40.5s40.5 -59.167 40.5 -96.5z" />
    <glyph glyph-name="semicolon" unicode=";" horiz-adv-x="786" 
d="M612 853c0 -37.333 -13.5 -69.333 -40.5 -96s-59.167 -40 -96.5 -40s-69.5 13.333 -96.5 40s-40.5 58.667 -40.5 96s13.333 69.5 40 96.5s59 40.5 97 40.5s70.333 -13.5 97 -40.5s40 -59.167 40 -96.5zM462 98c0 -56.667 -13 -109.5 -39 -158.5
s-59.333 -93.167 -100 -132.5c-39.333 -38 -79.5 -70.5 -120.5 -97.5s-77.5 -48.167 -109.5 -63.5l-32 67c30.667 16.667 61.5 35.5 92.5 56.5s57.5 42.167 79.5 63.5c26.667 26 49.167 51.667 67.5 77s32.833 56 43.5 92h-47c-40.667 0 -71.167 10.167 -91.5 30.5
s-30.5 46.833 -30.5 79.5c0 34.667 13.333 66.667 40 96s62.667 44 108 44c48.667 0 84 -14.167 106 -42.5s33 -65.5 33 -111.5z" />
    <glyph glyph-name="semicolon" unicode="&#x37e;" horiz-adv-x="786" 
d="M612 853c0 -37.333 -13.5 -69.333 -40.5 -96s-59.167 -40 -96.5 -40s-69.5 13.333 -96.5 40s-40.5 58.667 -40.5 96s13.333 69.5 40 96.5s59 40.5 97 40.5s70.333 -13.5 97 -40.5s40 -59.167 40 -96.5zM462 98c0 -56.667 -13 -109.5 -39 -158.5
s-59.333 -93.167 -100 -132.5c-39.333 -38 -79.5 -70.5 -120.5 -97.5s-77.5 -48.167 -109.5 -63.5l-32 67c30.667 16.667 61.5 35.5 92.5 56.5s57.5 42.167 79.5 63.5c26.667 26 49.167 51.667 67.5 77s32.833 56 43.5 92h-47c-40.667 0 -71.167 10.167 -91.5 30.5
s-30.5 46.833 -30.5 79.5c0 34.667 13.333 66.667 40 96s62.667 44 108 44c48.667 0 84 -14.167 106 -42.5s33 -65.5 33 -111.5z" />
    <glyph glyph-name="less" unicode="&#x3c;" horiz-adv-x="1317" 
d="M1143 22l-925 481v113l925 481v-137l-769 -400l769 -401v-137z" />
    <glyph glyph-name="equal" unicode="=" horiz-adv-x="1317" 
d="M1188 683h-1009v125h1009v-125zM1188 311h-1009v125h1009v-125z" />
    <glyph glyph-name="greater" unicode="&#x3e;" horiz-adv-x="1317" 
d="M1149 503l-925 -481v137l769 401l-769 400v137l925 -481v-113z" />
    <glyph glyph-name="question" unicode="?" horiz-adv-x="980" 
d="M1005 1119c0 -146.667 -50 -266.669 -150 -360.002s-231.667 -150 -395 -170l-50 -212h-92l79 379c54 5.33301 106.333 15.333 157 30s95.667 37.667 135 69c40.667 32 72.834 71.167 96.501 117.5s35.5 106.5 35.5 180.5c0 70.667 -18.333 125.834 -55 165.501
s-88.667 59.5 -156 59.5c-25.333 0 -50.833 -4.5 -76.5 -13.5s-45.834 -18.167 -60.501 -27.5v-68.5c0 -27.667 -1.66699 -50.5 -5 -68.5c-6 -30 -21.667 -54.5 -47 -73.5s-58.333 -28.5 -99 -28.5c-28 0 -48.833 8.66699 -62.5 26s-20.5 38 -20.5 62
c0 30.667 8.66699 60.834 26 90.501s44 58.5 80 86.5c32 25.333 73.333 46.5 124 63.5s105.334 25.5 164.001 25.5c113.333 0 203.666 -30 270.999 -90s101 -141 101 -243zM462 114.998c0 -37.333 -13.5 -69.166 -40.5 -95.499s-59.167 -39.5 -96.5 -39.5
s-69.5 13.167 -96.5 39.5s-40.5 58.166 -40.5 95.499s13.5 69.5 40.5 96.5s59.167 40.5 96.5 40.5s69.5 -13.5 96.5 -40.5s40.5 -59.167 40.5 -96.5z" />
    <glyph glyph-name="at" unicode="@" horiz-adv-x="1902" 
d="M1557 -119c-66.667 -58 -145.83 -104.83 -237.497 -140.497s-193.834 -53.5 -306.501 -53.5c-100.667 0 -199.667 16.167 -297 48.5s-185 81.5 -263 147.5c-77.333 66 -139.666 148.167 -186.999 246.5s-71 214.166 -71 347.499c0 114 21.333 224.667 64 332
s103.667 203 183 287c76.667 82 171.5 148.167 284.5 198.5s236.167 75.5 369.5 75.5c115.333 0 215.333 -18.5 300 -55.5s154 -85.833 208 -146.5c54 -60 94.5 -129 121.5 -207s40.5 -159.333 40.5 -244c0 -157.333 -43.833 -293.5 -131.5 -408.5
s-201.5 -172.5 -341.5 -172.5c-56.667 0 -104.667 14.167 -144 42.5s-61.333 68.166 -66 119.499l-7 2c-32 -48.667 -68.5 -87.5 -109.5 -116.5s-82.5 -43.5 -124.5 -43.5c-27.333 0 -55.166 4.5 -83.499 13.5s-53.5 23.833 -75.5 44.5c-22 22 -39.5 50.667 -52.5 86
s-19.5 79 -19.5 131c0 48.667 11.167 103.167 33.5 163.5s52.5 117.833 90.5 172.5c38 55.333 87.167 103.333 147.5 144s125.5 61 195.5 61c37.333 0 70.5 -10.5 99.5 -31.5s46.833 -51.833 53.5 -92.5h6l43 112h149l-189 -538c-6 -16.667 -10.833 -35.834 -14.5 -57.501
s-5.5 -38.834 -5.5 -51.501c0 -34 8.66699 -58.833 26 -74.5s39.666 -23.5 66.999 -23.5c103.333 0 189.666 48.5 258.999 145.5s104 224.833 104 383.5c0 78.667 -12.333 151.5 -37 218.5s-62.334 126.167 -113.001 177.5c-48.667 50.667 -110 90.667 -184 120
s-158.667 44 -254 44c-90.667 0 -179 -17.667 -265 -53s-164.333 -87.333 -235 -156c-68.667 -66.667 -124.334 -149.667 -167.001 -249s-64 -211.666 -64 -336.999c0 -120.667 16.667 -226.834 50 -318.501s80.333 -168.5 141 -230.5c59.333 -60 129.333 -105 210 -135
s168 -45 262 -45c106 0 200.333 14.333 283 43s157 70.334 223 125.001zM1209 742.003c-9.33301 54 -24.333 93.3291 -45 117.996s-51 37 -91 37c-42.667 0 -81.834 -17.167 -117.501 -51.5s-65.834 -75.166 -90.501 -122.499c-26 -49.333 -46.167 -103.166 -60.5 -161.499
s-21.5 -112.166 -21.5 -161.499c0 -72.667 9.16699 -120.167 27.5 -142.5s38.5 -33.5 60.5 -33.5c54.667 0 99.834 19.833 135.501 59.5s64.834 79.834 87.501 120.501z" />
    <glyph glyph-name="A" unicode="A" horiz-adv-x="1374" 
d="M875 576l-89 554l-340 -554h429zM722 0l14.998 65.999c20.667 2 44.834 4.83301 72.501 8.5s49.167 7.83398 64.5 12.501c20.667 6.66699 36.167 13.667 46.5 21s15.5 18.666 15.5 33.999c0 5.33301 -4 38 -12 98l-34 253h-498c-22 -34.667 -45.333 -74.834 -70 -120.501
l-57 -104.5c-12 -21.333 -23.5 -45.166 -34.5 -71.499s-16.5 -43.833 -16.5 -52.5c0 -22 17.667 -39.667 53 -53s79.666 -21.666 132.999 -24.999l-15 -66h-545l15 66c17.333 1.33301 39.833 5.16602 67.5 11.499s50.834 14.833 69.501 25.5
c23.333 13.333 45.833 29.833 67.5 49.5s44.834 49.167 69.501 88.5l379.5 610l363.5 588h80l189 -1229c4 -24.667 10.667 -45.5 20 -62.5s23.333 -32.833 42 -47.5c13.333 -9.33301 31.333 -17.166 54 -23.499s42.667 -9.83301 60 -10.5l-15 -66h-580z" />
    <glyph glyph-name="B" unicode="B" horiz-adv-x="1339" 
d="M1181 1363c36.667 -20 65.3389 -46.4941 86.0059 -79.4941s31 -71.5 31 -115.5c0 -60.667 -12 -114 -36 -160s-55.333 -84.667 -94 -116c-39.333 -32 -83.833 -58.5 -133.5 -79.5s-99.834 -36.5 -150.501 -46.5v-9c38.667 -4.66699 78.667 -13.834 120 -27.501
s78.666 -31.834 111.999 -54.501c35.333 -23.333 64.166 -53.5 86.499 -90.5s33.5 -80.833 33.5 -131.5c0 -75.333 -17.5 -141.833 -52.5 -199.5s-79.167 -104.5 -132.5 -140.5c-57.333 -38.667 -118.833 -67.167 -184.5 -85.5s-133.167 -27.5 -202.5 -27.5h-693l16 66
c16 1.33301 40 4.16602 72 8.49902s55 9.5 69 15.5c23.333 9.33301 41.166 22.166 53.499 38.499s21.166 36.166 26.499 59.499l237 1030c1.33301 6.66699 2.5 13.167 3.5 19.5s1.5 12.833 1.5 19.5c0 14 -2.83301 26.167 -8.5 36.5s-15.5 19.166 -29.5 26.499
c-19.333 10.667 -39.833 18.5 -61.5 23.5s-41.834 8.16699 -60.501 9.5l16 66h626c47.333 0 91.5 -4.16699 132.5 -12.5s79.833 -22.833 116.5 -43.5zM969.005 902.006c31.333 36.667 53.832 75.499 67.499 116.499s20.5 87.5 20.5 139.5c0 35.333 -6.33301 65.333 -19 90
s-30 44.334 -52 59.001c-22 14 -46.333 23.833 -73 29.5s-54.667 8.5 -84 8.5c-22 0 -46.5 -0.5 -73.5 -1.5l-68.5 -2.5l-127 -552h125c65.333 0 121.833 10.333 169.5 31s85.834 48 114.501 82zM904.004 216.005c28.667 39.333 50.333 82.332 65 128.999s22 92.667 22 138
c0 71.333 -24 127.333 -72 168s-115.333 61 -202 61c-42 0 -78 -0.5 -108 -1.5s-52.667 -1.83301 -68 -2.5l-113 -489c-2 -9.33301 -3.5 -18 -4.5 -26s-1.5 -15.667 -1.5 -23c0 -34.667 17.667 -59.667 53 -75s80.333 -23 135 -23c67.333 0 125.833 13.833 175.5 41.5
s89.167 61.834 118.5 102.501z" />
    <glyph glyph-name="C" unicode="C" horiz-adv-x="1315" 
d="M631 -33c-72.667 0 -141.331 12.666 -205.998 37.999s-121 62.333 -169 111c-48.667 49.333 -86.834 109 -114.501 179s-41.5 149 -41.5 237c0 126 21.333 243.667 64 353s101.334 207 176.001 293c72 82.667 158.5 149 259.5 199s206.5 75 316.5 75
c83.333 0 156.5 -9.66699 219.5 -29s114.833 -43.333 155.5 -72l56 68h80l-108 -506h-82v40c0 54.667 -4.33301 106.834 -13 156.501s-25.334 94.5 -50.001 134.5c-24 38.667 -56.833 69.5 -98.5 92.5s-94.834 34.5 -159.501 34.5c-82 0 -158.167 -21.833 -228.5 -65.5
s-131.166 -101.834 -182.499 -174.501c-50.667 -70.667 -91.334 -157.667 -122.001 -261s-46 -208.666 -46 -315.999c0 -142 34.833 -257.167 104.5 -345.5s163.167 -132.5 280.5 -132.5c98 0 188.167 29 270.5 87s149.5 135.667 201.5 233l72 -38
c-84 -143.333 -177.667 -244.333 -281 -303s-221.333 -88 -354 -88z" />
    <glyph glyph-name="D" unicode="D" horiz-adv-x="1534" 
d="M1515 872c0 -135.333 -26.335 -258.168 -79.002 -368.501s-121.667 -201.833 -207 -274.5c-88.667 -75.333 -187.5 -132.333 -296.5 -171s-223.167 -58 -342.5 -58h-619l15 66c17.333 0 41.833 1.66699 73.5 5s54.167 7.66602 67.5 12.999
c24 9.33301 42.167 22.5 54.5 39.5s20.833 37.167 25.5 60.5l236 1021c2 8 3.83301 16.833 5.5 26.5s2.5 17.5 2.5 23.5c0 14.667 -2.5 27.5 -7.5 38.5s-15.167 20.167 -30.5 27.5c-17.333 8 -38.666 14.833 -63.999 20.5s-44.666 9.5 -57.999 11.5l15 66h601
c60 0 125.333 -8.5 196 -25.5s136.667 -46.167 198 -87.5c64.667 -43.333 116.5 -101.166 155.5 -173.499s58.5 -159.166 58.5 -260.499zM1280 870.998c0 149.333 -40 265.334 -120 348.001s-186.333 124 -319 124c-27.333 0 -55.666 -0.5 -84.999 -1.5
s-52.333 -1.83301 -69 -2.5l-254 -1101c-2 -9.33301 -3.66699 -18.333 -5 -27s-2 -17 -2 -25c0 -40 16.667 -68.167 50 -84.5s88 -24.5 164 -24.5c99.333 0 189.833 22.667 271.5 68s149.5 105.666 203.5 180.999c55.333 78 96.666 163 123.999 255s41 188.667 41 290z" />
    <glyph glyph-name="E" unicode="E" horiz-adv-x="1338" 
d="M1388 1419l-78.9961 -342h-75c-4 70.667 -18.833 130 -44.5 178s-60.167 75.333 -103.5 82c-20 2.66699 -44.333 4.66699 -73 6s-61 2 -97 2h-228l-131 -571h160c49.333 0 87.666 4.83301 114.999 14.5s51.666 25.834 72.999 48.501c20 20 39.333 47.5 58 82.5
s32 64.5 40 88.5h75l-128 -555h-74c0 7.33301 0.5 16.166 1.5 26.499s1.5 21.5 1.5 33.5c0 24.667 -1.66699 48.334 -5 71.001s-8 39.334 -14 50.001c-14 26 -34 43 -60 51s-60 12 -102 12h-160l-99 -433c-4 -16 -7.33301 -33.333 -10 -52s-4 -33.334 -4 -44.001
c0 -36.667 13.167 -61 39.5 -73s84.5 -18 174.5 -18c112 0 188 4 228 12s69.667 19.667 89 35c38 30.667 82.5 79.667 133.5 147s85.167 116.333 102.5 147h72l-123 -418h-1178l15 66c20.667 1.33301 48 4.16602 82 8.49902s57 8.83301 69 13.5
c23.333 8.66699 41.166 21.667 53.499 39s20.833 37.666 25.5 60.999l238 1030c1.33301 5.33301 2.5 11.333 3.5 18s1.5 13 1.5 19c0 13.333 -2.83301 25.333 -8.5 36s-15.834 19.667 -30.501 27c-16 8.66699 -38.667 16.334 -68 23.001s-52.333 10.667 -69 12l15 66h1098z
" />
    <glyph glyph-name="F" unicode="F" horiz-adv-x="1227" 
d="M1404 1419l-81.998 -354.999h-75c-2.66699 71.333 -17.834 133.166 -45.501 185.499s-61.5 81.5 -101.5 87.5c-20.667 2.66699 -44.834 4.66699 -72.501 6s-59.5 2 -95.5 2h-243l-133 -577h163c38.667 0 74 4.16699 106 12.5s63 25.833 93 52.5
c15.333 14 32.5 36.667 51.5 68s34.167 64.666 45.5 99.999h76l-128 -557h-76c0.666992 8 1.5 17.333 2.5 28s1.5 22.334 1.5 35.001c0 18.667 -1.33301 40 -4 64s-7.66699 42 -15 54c-18 27.333 -41.333 45.333 -70 54s-62.667 13 -102 13h-163l-114 -497
c-1.33301 -5.33301 -2.33301 -10.833 -3 -16.5s-1 -11.167 -1 -16.5c0 -14.667 3 -27.5 9 -38.5s16.333 -20.833 31 -29.5c10.667 -5.33301 31.667 -11 63 -17s57 -9.66699 77 -11l-16 -66h-618l16 66c20.667 1.33301 47.334 3.5 80.001 6.5s55 6.83301 67 11.5
c23.333 9.33301 41 22.5 53 39.5s20.667 37.167 26 60.5l239 1034c1.33301 6.66699 2.5 13.167 3.5 19.5s1.5 12.833 1.5 19.5c0 13.333 -2.5 24.833 -7.5 34.5s-15.5 18.5 -31.5 26.5c-14.667 8 -36.334 15.333 -65.001 22s-52.667 11 -72 13l16 66h1113z" />
    <glyph glyph-name="G" unicode="G" horiz-adv-x="1485" 
d="M667 -33c-80 0 -154.333 12.6699 -223 38.0029s-128.667 62.666 -180 111.999s-91.5 109.333 -120.5 180s-43.5 151.667 -43.5 243c0 128.667 22.5 248.167 67.5 358.5s106.5 206.833 184.5 289.5c76.667 82 167.334 146.5 272.001 193.5s215 70.5 331 70.5
c92 0 170.833 -10.5 236.5 -31.5s117.167 -44.167 154.5 -69.5l56 68h80l-105 -496h-82c-1.33301 55.333 -6 109.666 -14 162.999s-24.667 101.333 -50 144c-26 43.333 -61.667 77.666 -107 102.999s-108.666 38 -189.999 38c-82 0 -159.5 -21.167 -232.5 -63.5
s-137.167 -101.833 -192.5 -178.5c-54 -74 -96.5 -163 -127.5 -267s-46.5 -215.333 -46.5 -334c0 -148 35 -264.667 105 -350s166.667 -128 290 -128c58.667 0 109.667 8.66699 153 26s77.666 36.666 102.999 57.999c9.33301 27.333 18.166 56.166 26.499 86.499
s17.5 67.5 27.5 111.5l19 86l4.5 26c1.66699 10 2.5 19.333 2.5 28c0 16.667 -2.16699 30.334 -6.5 41.001s-14.833 19.667 -31.5 27c-19.333 10 -47.5 17.5 -84.5 22.5s-65.5 8.16699 -85.5 9.5l15 68h623l-15 -68c-17.333 -2 -39.833 -5.16699 -67.5 -9.5
s-50.834 -10.5 -69.501 -18.5c-24 -10.667 -41.833 -25 -53.5 -43s-20.5 -39.333 -26.5 -64l-26 -115c-15.333 -63.333 -26 -110.666 -32 -141.999s-11.333 -61 -16 -89l-117.5 -47c-34.333 -13.333 -77.166 -26.333 -128.499 -39c-46.667 -12 -91.5 -21.333 -134.5 -28
s-90.5 -10 -142.5 -10z" />
    <glyph glyph-name="H" unicode="H" horiz-adv-x="1669" 
d="M1771 1419l-15.0039 -66.0029c-18.667 -0.666992 -42 -3.66699 -70 -9s-49.333 -10.333 -64 -15c-26 -8.66699 -44.667 -22.334 -56 -41.001s-19.666 -38.667 -24.999 -60l-238 -1033c-1.33301 -5.33301 -2.33301 -11.333 -3 -18s-1 -12.334 -1 -17.001
c0 -14 3 -26.333 9 -37s15.667 -20.334 29 -29.001c10 -6 28.167 -12 54.5 -18s48.833 -9.33301 67.5 -10l-15 -66h-589l15 66c16.667 1.33301 40.334 3.33301 71.001 6s52.334 6.66699 65.001 12c23.333 8.66699 41.333 21.334 54 38.001s21.667 37.334 27 62.001l118 512
h-667l-115 -501c-1.33301 -5.33301 -2.33301 -11 -3 -17s-1 -11.667 -1 -17c0 -13.333 3.16699 -26 9.5 -38s15.833 -21.667 28.5 -29c10 -6 28.167 -12 54.5 -18s48.833 -9.33301 67.5 -10l-15 -66h-589l15 66c16.667 1.33301 40.334 3.33301 71.001 6
s52.334 6.66699 65.001 12c23.333 8.66699 41.333 21.334 54 38.001s21.667 37.334 27 62.001l239 1034c1.33301 5.33301 2.33301 10.833 3 16.5s1 11.5 1 17.5c0 14.667 -2.83301 27.334 -8.5 38.001s-15.834 20 -30.501 28c-16 8.66699 -36 16.334 -60 23.001
s-45.333 10.667 -64 12l15 66h589l-15 -66c-18.667 -0.666992 -42 -3.66699 -70 -9s-49.333 -10.333 -64 -15c-26 -8.66699 -44.667 -22.334 -56 -41.001s-19.666 -38.667 -24.999 -60l-102 -447h667l100 437c1.33301 5.33301 2.33301 10.833 3 16.5s1 11.167 1 16.5
c0 14.667 -2.83301 27.5 -8.5 38.5s-15.834 20.5 -30.501 28.5c-16 8.66699 -36 16.334 -60 23.001s-45.333 10.667 -64 12l15 66h589z" />
    <glyph glyph-name="I" unicode="I" horiz-adv-x="798" 
d="M922 1419l-15.001 -65.999c-20.667 -0.666992 -47.667 -3.66699 -81 -9s-58 -10.333 -74 -15c-28 -8.66699 -48 -22 -60 -40s-20.667 -37.667 -26 -59l-240 -1037c-1.33301 -4.66699 -2.33301 -10 -3 -16s-1 -11.333 -1 -16c0 -15.333 3.33301 -28.333 10 -39
s18.667 -20 36 -28c10 -4.66699 32 -10.167 66 -16.5s59.333 -10.166 76 -11.499l-15 -66h-639l15 66l80 6c34.667 2.66699 59.334 6.66699 74.001 12c26 9.33301 45.667 22.166 59 38.499s22.333 36.166 27 59.499l239 1038c1.33301 6 2.33301 12 3 18s1 12 1 18
c0 13.333 -2.83301 25 -8.5 35s-17.5 19 -35.5 27s-42.5 15.5 -73.5 22.5s-53.833 11.167 -68.5 12.5l15 66h639z" />
    <glyph glyph-name="J" unicode="J" horiz-adv-x="1060" 
d="M1209 1419l-15.001 -66.002c-19.333 -0.666992 -43.333 -3.16699 -72 -7.5s-53.334 -9.83301 -74.001 -16.5c-26 -8.66699 -44.5 -21.667 -55.5 -39s-19.5 -38 -25.5 -62l-190 -846c-10 -44.667 -28.833 -91.834 -56.5 -141.501s-63.167 -94.167 -106.5 -133.5
c-46 -42 -97.667 -76 -155 -102s-124.333 -39 -201 -39c-93.333 0 -168 23.333 -224 70s-84 111.334 -84 194.001c0 66 16.5 123.667 49.5 173s76.167 74 129.5 74c40 0 68.333 -9.66699 85 -29s25 -42 25 -68c0 -23.333 -5.66699 -47.333 -17 -72s-26 -48.667 -44 -72
c-16 -20.667 -33.667 -42.167 -53 -64.5s-34.333 -41.166 -45 -56.499c10 -20 28.667 -38 56 -54s68 -24 122 -24c48.667 0 90.834 11.167 126.501 33.5s65.167 52.166 88.5 89.499s43.5 81.333 60.5 132s32.5 107.334 46.5 170.001l170 756
c0.666992 3.33301 1.5 8.33301 2.5 15s1.5 12.667 1.5 18c0 14 -3 26.667 -9 38s-16.333 21 -31 29c-17.333 10.667 -42.666 18.834 -75.999 24.501s-58 9.16699 -74 10.5l15 66h630z" />
    <glyph glyph-name="K" unicode="K" horiz-adv-x="1422" 
d="M1597 1419l-15.0039 -65.999c-3.33301 0 -16 -1.16699 -38 -3.5s-43.667 -5.83301 -65 -10.5c-26.667 -6 -52.5 -14.167 -77.5 -24.5s-48.5 -25.166 -70.5 -44.499l-282 -251.5c-100.667 -89.667 -195 -170.167 -283 -241.5l171.5 -275l159.5 -268
c18.667 -32 39.5 -60.333 62.5 -85s45.167 -43 66.5 -55c14.667 -8.66699 35.334 -15.334 62.001 -20.001s48.334 -7.33398 65.001 -8.00098l-17 -66h-361c-53.333 115.333 -112 229 -176 341s-134 223 -210 333h-55l-111 -479c-1.33301 -5.33301 -2.33301 -10.833 -3 -16.5
s-1 -11.5 -1 -17.5c0 -16 2.33301 -29 7 -39s15.334 -19.333 32.001 -28c8.66699 -4.66699 27.834 -10.334 57.501 -17.001s52.167 -10.334 67.5 -11.001l-15 -66h-589l15 66c16.667 1.33301 39.667 3.33301 69 6s50.666 6.66699 63.999 12
c24 9.33301 42.167 22.5 54.5 39.5s20.833 37.167 25.5 60.5l239 1034c1.33301 6 2.33301 12 3 18s1 12 1 18c0 14.667 -3 27.334 -9 38.001s-15.667 19.334 -29 26.001c-12 6.66699 -30.167 13.5 -54.5 20.5s-46.5 11.833 -66.5 14.5l15 66h589l-15 -66
c-18.667 -0.666992 -42.667 -3.66699 -72 -9s-51.333 -10.333 -66 -15c-24.667 -8 -43 -21.5 -55 -40.5s-20.667 -39.167 -26 -60.5l-116 -505h20c95.333 67.333 189.333 141 282 221s168.334 150 227.001 210c36 36.667 63.5 67.5 82.5 92.5s28.5 45.5 28.5 61.5
c0 12 -11.5 22 -34.5 30s-56.5 13 -100.5 15l15 66h532z" />
    <glyph glyph-name="L" unicode="L" horiz-adv-x="1236" 
d="M1211 422l-127.001 -421.999h-1109l15 66c16.667 1.33301 40.334 3.66602 71.001 6.99902s53 7.66602 67 12.999c24 9.33301 42.167 22.833 54.5 40.5s20.833 38.167 25.5 61.5l237 1026c1.33301 6 2.5 12.167 3.5 18.5s1.5 12.5 1.5 18.5
c0 13.333 -2.83301 25.5 -8.5 36.5s-15.834 20.5 -30.501 28.5c-13.333 8 -32.833 15.667 -58.5 23s-47.5 12 -65.5 14l15 66h599l-15 -66c-15.333 -0.666992 -37.5 -3.5 -66.5 -8.5s-54.5 -10.833 -76.5 -17.5c-26 -8.66699 -45 -22.667 -57 -42
s-20.667 -39.666 -26 -60.999l-222 -963c-5.33301 -23.333 -9.5 -43.833 -12.5 -61.5s-4.5 -32.167 -4.5 -43.5c0 -36.667 14.833 -59.667 44.5 -69s83.834 -14 162.501 -14c44 0 94.167 3.83301 150.5 11.5s95.5 21.5 117.5 41.5c34 30 76.833 76.5 128.5 139.5
s90.167 115.167 115.5 156.5h71z" />
    <glyph glyph-name="M" unicode="M" horiz-adv-x="1899" 
d="M2008 1419l-14.998 -66c-19.333 -0.666992 -44 -3.66699 -74 -9s-52.333 -10.333 -67 -15c-26 -8.66699 -44.667 -22.334 -56 -41.001s-19.666 -38.667 -24.999 -60l-239 -1033c-1.33301 -5.33301 -2.33301 -11.333 -3 -18s-1 -12 -1 -16c0 -14 3 -26.5 9 -37.5
s16 -20.833 30 -29.5c9.33301 -6 29.166 -12 59.499 -18s54.166 -9.33301 71.499 -10l-16 -66h-625l16 66c24 1.33301 54 3.83301 90 7.5s61.333 9.16699 76 16.5c23.333 12.667 42.166 27.334 56.499 44.001s23.833 37 28.5 61l245 1057h-11l-775 -1229h-47l-178 1254h-10
l-201 -872c-8 -35.333 -14.667 -69.666 -20 -102.999s-8 -60.333 -8 -81c0 -22 2.33301 -40.833 7 -56.5s11.334 -28.5 20.001 -38.5c12 -14 37.333 -26.667 76 -38s69 -18.666 91 -21.999l-16 -66h-573l16 66c31.333 3.33301 62.666 8 93.999 14s60.333 17.333 87 34
c26.667 18 49.334 47.333 68.001 88s37.667 104.667 57 192l170 736c3.33301 15.333 5.83301 29.166 7.5 41.499s2.5 24.5 2.5 36.5c0 21.333 -2.66699 39.166 -8 53.499s-12.333 26.5 -21 36.5c-17.333 19.333 -40.833 33 -70.5 41s-56.834 12.667 -81.501 14l15 66h478
l155 -1067l552 893c20.667 34 39.667 69 57 105s27.333 59 30 69h476z" />
    <glyph glyph-name="N" unicode="N" horiz-adv-x="1571" 
d="M1759 1419l-16 -66c-18 -0.666992 -47.667 -6 -89 -16s-71.333 -20.333 -90 -31c-28.667 -16.667 -52.167 -48.5 -70.5 -95.5s-36.166 -107.167 -53.499 -180.5l-241 -1044h-90l-582 1198l-178 -774c-8 -34.667 -14.667 -69.667 -20 -105s-8 -64 -8 -86
c0 -23.333 2.33301 -42.166 7 -56.499s11 -26.166 19 -35.499c11.333 -14 39.666 -27.333 84.999 -40s75.333 -19.667 90 -21l-15 -66h-582l15 66c22 2 54.333 8.5 97 19.5s71 21.5 85 31.5c26.667 18 49.334 47.167 68.001 87.5s38 105.166 58 194.499l159 688
c4.66699 22 8 40.833 10 56.5s3 30.167 3 43.5c0 16 -1.83301 31.167 -5.5 45.5s-12.167 29.5 -25.5 45.5c-23.333 26.667 -51.833 45.167 -85.5 55.5s-63.834 16.833 -90.501 19.5l16 66h407l540 -1109l163 707c8 35.333 14.667 69.833 20 103.5s8 62.5 8 86.5
c0 22 -2.16699 40.5 -6.5 55.5s-10.833 26.167 -19.5 33.5c-16 14 -43 26.167 -81 36.5s-69.333 17.166 -94 20.499l16 66h577z" />
    <glyph glyph-name="O" unicode="O" horiz-adv-x="1496" 
d="M1477 873c0 -126.667 -23.335 -245.833 -70.002 -357.5s-107.667 -207.167 -183 -286.5c-77.333 -81.333 -165.5 -145.5 -264.5 -192.5s-201.5 -70.5 -307.5 -70.5c-165.333 0 -298.666 53.667 -399.999 161s-152 245 -152 413c0 129.333 23.333 249.5 70 360.5
s107.334 206.833 182.001 287.5c75.333 82 163.166 146.667 263.499 194s203.5 71 309.5 71c162.667 0 295.334 -52.5 398.001 -157.5s154 -245.833 154 -422.5zM1095 339.001c47.333 82.667 83.666 176 108.999 280s38 208 38 312c0 133.333 -28.333 239.666 -85 318.999
s-140 119 -250 119c-85.333 0 -164.666 -25.333 -237.999 -76s-137.333 -125 -192 -223c-47.333 -86 -82.833 -180.667 -106.5 -284s-35.5 -200.666 -35.5 -291.999c0 -140 28.833 -249 86.5 -327s140.167 -117 247.5 -117c91.333 0 173.333 27.333 246 82
s132.667 123.667 180 207z" />
    <glyph glyph-name="P" unicode="P" horiz-adv-x="1249" 
d="M1312 1133c0 -80.667 -17.833 -152.664 -53.5 -215.997s-81.5 -116 -137.5 -158c-58.667 -44 -124.334 -77.167 -197.001 -99.5s-148.667 -33.5 -228 -33.5h-173l-102 -438c-1.33301 -6 -2.33301 -12.333 -3 -19s-1 -12.334 -1 -17.001c0 -14.667 2.66699 -27.667 8 -39
s16 -20.333 32 -27c10 -4.66699 30.167 -9 60.5 -13s57.5 -6.33301 81.5 -7l-15 -66h-609l15 66c16.667 1.33301 40.334 3.66602 71.001 6.99902s53 7.66602 67 12.999c24 9.33301 42.167 22.833 54.5 40.5s20.833 38.167 25.5 61.5l239 1034c1.33301 6 2.5 12.667 3.5 20
s1.5 14.333 1.5 21c0 14 -2.66699 26.667 -8 38s-15.333 20 -30 26c-21.333 8 -44 14 -68 18s-46 6.66699 -66 8l15 66h631c114 0 206.833 -25.5 278.5 -76.5s107.5 -120.833 107.5 -209.5zM992 862.003c27.333 39.333 46.666 81.168 57.999 125.501s17 85.833 17 124.5
c0 30.667 -4.16699 59.667 -12.5 87s-22.5 52 -42.5 74c-20 21.333 -45.667 38.166 -77 50.499s-70.666 18.5 -117.999 18.5h-130l-145 -634h113c77.333 0 144 12.833 200 38.5s101.667 64.167 137 115.5z" />
    <glyph glyph-name="Q" unicode="Q" horiz-adv-x="1496" 
d="M1477 873c0 -126.667 -23.333 -245.833 -70 -357.5s-107.667 -207.167 -183 -286.5c-50.667 -53.333 -107.167 -99.5 -169.5 -138.5s-126.833 -68.833 -193.5 -89.5c-2.66699 -9.33301 -4.33398 -21 -5.00098 -35s-1 -26.333 -1 -37c0 -68 18.333 -120.667 55 -158
s82 -56 136 -56c56.667 0 100.167 2.5 130.5 7.5s54.5 9.83301 72.5 14.5l-17 -75c-40.667 -12.667 -89.5 -23.834 -146.5 -33.501s-111.833 -14.5 -164.5 -14.5c-94 0 -166.667 25 -218 75s-77 123.667 -77 221c0 7.33301 0.333008 17 1 29s1.66699 21.667 3 29
c-158 5.33301 -285.833 60.333 -383.5 165s-146.5 240.334 -146.5 407.001c0 129.333 23.333 249.5 70 360.5s107.334 206.833 182.001 287.5c75.333 82 163.166 146.667 263.499 194s203.5 71 309.5 71c162.667 0 295.334 -52.5 398.001 -157.5s154 -245.833 154 -422.5z
M1242 931.001c0 133.333 -28.333 239.666 -85 318.999s-140 119 -250 119c-85.333 0 -164.666 -25.333 -237.999 -76s-137.333 -125 -192 -223c-47.333 -86 -82.833 -180.667 -106.5 -284s-35.5 -200.666 -35.5 -291.999c0 -140 28.833 -249 86.5 -327
s140.167 -117 247.5 -117c91.333 0 173.333 27.333 246 82s132.667 123.667 180 207c47.333 82.667 83.666 176 108.999 280s38 208 38 312z" />
    <glyph glyph-name="R" unicode="R" horiz-adv-x="1437" 
d="M1370 66l-16.001 -65.9971h-359c-56.667 134.667 -110.167 249.834 -160.5 345.501l-159.5 300.5h-148l-106 -458c-1.33301 -5.33301 -2.5 -11.666 -3.5 -18.999s-1.5 -12.666 -1.5 -15.999c0 -15.333 2.83301 -28.666 8.5 -39.999s15.834 -20.333 30.501 -27
c9.33301 -4 29.166 -8.16699 59.499 -12.5s55.5 -6.83301 75.5 -7.5l-16 -66h-600l16 66c16.667 1.33301 40.334 3.66602 71.001 6.99902s52.667 7.66602 66 12.999c24 9.33301 42.333 22.833 55 40.5s21.334 38.167 26.001 61.5l239 1036
c1.33301 6.66699 2.5 13.5 3.5 20.5s1.5 13.833 1.5 20.5c0 14 -2.66699 26.333 -8 37s-15.333 19 -30 25c-14 5.33301 -34.333 10.666 -61 15.999s-48.667 8.66602 -66 9.99902l15 66h638c57.333 0 109.666 -5.66699 156.999 -17s87 -27 119 -47
c35.333 -21.333 63.166 -49.333 83.499 -84s30.5 -75.667 30.5 -123c0 -62.667 -11.667 -119.834 -35 -171.501s-55 -95.834 -95 -132.501c-42 -38 -89.667 -69.5 -143 -94.5s-112 -44.833 -176 -59.5l127 -239l115 -217c22.667 -43.333 43 -74.5 61 -93.5
s37 -34.167 57 -45.5c16.667 -9.33301 38.334 -16.333 65.001 -21s48 -7.33398 64 -8.00098zM1084 1127c0 68 -20.832 121 -62.499 159s-100.167 57 -175.5 57h-159l-141 -616h142c109.333 0 202.666 38.167 279.999 114.5s116 171.5 116 285.5z" />
    <glyph glyph-name="S" unicode="S" horiz-adv-x="1149" 
d="M493 -29c-82 0 -153.831 10.165 -215.498 30.498s-111.5 43.833 -149.5 70.5l-57 -73h-80l98 486h81c3.33301 -58 11.166 -112.333 23.499 -163s32.5 -96.334 60.5 -137.001c28 -42 64.333 -74.5 109 -97.5s100 -34.5 166 -34.5c99.333 0 179 27.5 239 82.5
s90 130.167 90 225.5c0 51.333 -12.667 97 -38 137s-63.333 71 -114 93c-48 20.667 -95.5 39.167 -142.5 55.5s-93.167 35.5 -138.5 57.5c-60 28.667 -108.333 69.834 -145 123.501s-55 114.167 -55 181.5c0 64 14.167 123 42.5 177s65.833 100.667 112.5 140
c45.333 38 100.166 68.333 164.499 91s128.166 34 191.499 34c59.333 0 115.5 -7 168.5 -21s106.167 -40.333 159.5 -79l55 68h80l-101 -471h-81c-2 51.333 -7.16699 104.333 -15.5 159s-22.5 100 -42.5 136c-22 39.333 -52.667 70.166 -92 92.499
s-91.666 33.5 -156.999 33.5c-78.667 0 -144.667 -27.167 -198 -81.5s-80 -118.833 -80 -193.5c0 -49.333 9.83301 -91.166 29.5 -125.499s50.167 -62.166 91.5 -83.499c44 -22.667 90.167 -42.167 138.5 -58.5s91.5 -33.5 129.5 -51.5c76.667 -36 136.5 -79.333 179.5 -130
s64.5 -112.667 64.5 -186c0 -70.667 -15.333 -136.667 -46 -198s-71.667 -112.666 -123 -153.999c-54 -44 -114.5 -77.667 -181.5 -101s-140.833 -35 -221.5 -35z" />
    <glyph glyph-name="T" unicode="T" horiz-adv-x="1267" 
d="M1455 1419l-88.999 -385h-69c-0.666992 23.333 -3.83398 53 -9.50098 89s-13.834 68.333 -24.501 97c-11.333 30.667 -26.166 57 -44.499 79s-40.166 35 -65.499 39c-20 2.66699 -45.5 4.66699 -76.5 6s-59.833 2 -86.5 2h-63l-264 -1145
c-1.33301 -5.33301 -2.33301 -11.166 -3 -17.499s-1 -12.5 -1 -18.5c0 -16 3 -29.167 9 -39.5s17.333 -19.5 34 -27.5c13.333 -5.33301 37.5 -11.833 72.5 -19.5s63.5 -11.834 85.5 -12.501l-16 -66h-670l16 66c20 1.33301 49 4 87 8s65.667 9 83 15
c26.667 10 46.667 23.667 60 41s22.666 38 27.999 62l266 1154h-53c-20 0 -45 -0.5 -75 -1.5s-60.667 -3.16699 -92 -6.5c-22 -2.66699 -47.667 -15.834 -77 -39.501s-58.666 -51.5 -87.999 -83.5c-28 -31.333 -53.333 -63.166 -76 -95.499s-40.334 -60.833 -53.001 -85.5
h-70l89 385h1236z" />
    <glyph glyph-name="U" unicode="U" horiz-adv-x="1549" 
d="M659 -34c-140 0 -249.498 29.6689 -328.498 89.002s-118.5 138.333 -118.5 237c0 14 0.833008 27.167 2.5 39.5s4.16699 26.5 7.5 42.5l195 844c1.33301 5.33301 2.33301 11 3 17s1 11.667 1 17c0 13.333 -3 25.833 -9 37.5s-15.667 21.834 -29 30.501
c-14.667 9.33301 -34.334 16.666 -59.001 21.999s-45.334 9 -62.001 11l16 66h590l-16 -66c-18.667 -0.666992 -42.667 -3.66699 -72 -9s-51.333 -10.333 -66 -15c-26 -8.66699 -44.667 -22.334 -56 -41.001s-19.666 -38.667 -24.999 -60l-182 -789
c-4 -17.333 -7.5 -36.666 -10.5 -57.999s-4.5 -42 -4.5 -62c0 -34.667 3.66699 -64.834 11 -90.501s23.333 -51.5 48 -77.5c20.667 -22.667 49.5 -41.167 86.5 -55.5s83.5 -21.5 139.5 -21.5c76 0 141 11.833 195 35.5s99 53.167 135 88.5c34 34 61.833 71.667 83.5 113
s36.834 81 45.501 119c24 96 46.333 189.5 67 280.5l66 298.5c11.333 53.333 19.166 96.666 23.499 129.999s6.5 60.666 6.5 81.999c0 19.333 -2 34.833 -6 46.5s-11 21.834 -21 30.501c-19.333 16.667 -48.333 29.5 -87 38.5s-68 14.5 -88 16.5l16 66h580l-16 -66
c-18 -0.666992 -46.333 -4.83398 -85 -12.501s-70 -18.5 -94 -32.5c-27.333 -16 -51.5 -51.167 -72.5 -105.5s-38.167 -111.166 -51.5 -170.499l-63.5 -288.5c-21.667 -97 -46.5 -202.167 -74.5 -315.5c-23.333 -92.667 -58.5 -169.167 -105.5 -229.5
s-99.833 -107.5 -158.5 -141.5c-56.667 -32.667 -115.334 -56 -176.001 -70s-121 -21 -181 -21z" />
    <glyph glyph-name="V" unicode="V" horiz-adv-x="1365" 
d="M1614 1419l-14.999 -65.9971c-17.333 -0.666992 -39 -4.33398 -65 -11.001s-48.667 -15.334 -68 -26.001c-28.667 -16 -51.834 -34.667 -69.501 -56s-36.167 -46.666 -55.5 -75.999l-317.5 -498l-439.5 -704h-83l-103.5 731.5c-37 263 -61.167 431.167 -72.5 504.5
c-3.33301 22 -9.83301 40.5 -19.5 55.5s-23.834 29.5 -42.501 43.5c-15.333 11.333 -33.333 19.833 -54 25.5s-40 9.16699 -58 10.5l15 66h575l-15 -66c-70.667 -3.33301 -120.5 -10.166 -149.5 -20.499s-43.5 -25.5 -43.5 -45.5c0 -6.66699 0.333008 -13.834 1 -21.501
s1 -13.167 1 -16.5l45 -323.5l91 -634.5l283.5 450l208.5 341c40 66.667 64.5 113.667 73.5 141s13.5 44.333 13.5 51c0 13.333 -6.33301 24.666 -19 33.999s-28.667 17 -48 23c-19.333 6.66699 -40.666 11.667 -63.999 15s-43.333 5.66602 -60 6.99902l15 66h540z" />
    <glyph glyph-name="W" unicode="W" horiz-adv-x="1998" 
d="M2232 1419l-15 -66.001c-16.667 -0.666992 -37 -4.5 -61 -11.5s-46.333 -16.167 -67 -27.5c-27.333 -15.333 -50.333 -33 -69 -53s-37.334 -47.333 -56.001 -82l-279.5 -523l-362.5 -674h-89l-116 1094l-621 -1094h-88l-39 765.5l-24 470.5
c-1.33301 21.333 -5.33301 39.333 -12 54s-19.667 29.667 -39 45c-14 11.333 -31.833 19.833 -53.5 25.5s-41.167 9.16699 -58.5 10.5l15 66h571l-15 -66c-79.333 -4.66699 -132.5 -13.167 -159.5 -25.5s-40.5 -27.166 -40.5 -44.499c0 -13.333 0.333008 -33 1 -59
s1.66699 -52.667 3 -80c2 -46 6.83301 -138.833 14.5 -278.5l28.5 -527.5l596 1061h92l119 -1084l218 424.5l166 333.5c29.333 60.667 49.833 106.667 61.5 138s17.5 53.333 17.5 66c0 21.333 -15.167 38.5 -45.5 51.5s-74.166 21.167 -131.499 24.5l15 66h524z" />
    <glyph glyph-name="X" unicode="X" horiz-adv-x="1455" 
d="M1614 1419l-15 -66c-17.333 -0.666992 -39.166 -3 -65.499 -7s-49.833 -10.333 -70.5 -19c-38.667 -16.667 -68 -34.334 -88 -53.001l-88 -85l-210 -212.5l-208 -214.5l111.5 -248.5l124.5 -279.5c13.333 -30 30 -59.333 50 -88s37.333 -48 52 -58
c13.333 -9.33301 33.666 -15.166 60.999 -17.499s50 -3.83301 68 -4.5l-15 -66h-639l15 66c39.333 0.666992 82.5 5.16699 129.5 13.5s70.5 24.833 70.5 49.5c0 18 -4.83301 42.833 -14.5 74.5s-20.5 62.167 -32.5 91.5l-62.5 152l-73.5 171l-172 -180l-172 -189
c-28 -32 -49.5 -58.667 -64.5 -80s-22.5 -37 -22.5 -47c0 -23.333 15.833 -38.333 47.5 -45s67.834 -10.334 108.501 -11.001l-15 -66h-534l15 66c17.333 1.33301 39.5 3.83301 66.5 7.5s50.167 9.83398 69.5 18.501c38 18 70.5 38.5 97.5 61.5s53.5 48.167 79.5 75.5
l218.5 225l238.5 248l-103.5 232l-113.5 254c-20 44.667 -35.333 75.667 -46 93s-29 32.666 -55 45.999c-12.667 6.66699 -33.167 12.334 -61.5 17.001s-50.833 7.66699 -67.5 9l15 66h632l-15 -66c-56.667 -2 -104 -7.83301 -142 -17.5s-57 -24.167 -57 -43.5
c0 -21.333 4.5 -45 13.5 -71s21.167 -57.333 36.5 -94l53.5 -128.5c13.667 -33 36.834 -86.167 69.501 -159.5l189.5 200c55 58.667 101.5 112 139.5 160c21.333 27.333 36.666 47.833 45.999 61.5s14 25.5 14 35.5c0 19.333 -15.833 33.5 -47.5 42.5
s-66.834 13.833 -105.501 14.5l15 66h529z" />
    <glyph glyph-name="Y" unicode="Y" horiz-adv-x="1260" 
d="M1517 1419l-15.998 -65.9951c-12 -0.666992 -30.667 -4.83398 -56 -12.501s-45.333 -16.167 -60 -25.5c-29.333 -15.333 -49.833 -27.5 -61.5 -36.5s-34.834 -31.833 -69.501 -68.5c-63.333 -66.667 -130.666 -144.667 -201.999 -234l-224 -280
c-34.667 -42.667 -58.834 -77.167 -72.501 -103.5s-26.5 -64.166 -38.5 -113.499l-63 -276c-1.33301 -5.33301 -2.33301 -11.333 -3 -18s-1 -12.334 -1 -17.001c0 -16.667 3 -30.667 9 -42s17.333 -21 34 -29c14.667 -6.66699 39.167 -13.334 73.5 -20.001
s61.5 -10.334 81.5 -11.001l-15 -66h-664l15 66c19.333 1.33301 47.666 3.66602 84.999 6.99902s64.666 8.33301 81.999 15c26.667 10 46.5 23.833 59.5 41.5s22.167 38.834 27.5 63.501l72 311l6 30c2 10 3 16 3 18c0 16 -3 36.833 -9 62.5s-13.333 52.834 -22 81.501
l-72.5 247c-25.667 85.333 -51.167 165.333 -76.5 240c-12.667 36.667 -25.5 65.167 -38.5 85.5s-28.833 37.5 -47.5 51.5c-13.333 10 -30.5 17.667 -51.5 23s-40.5 8.66602 -58.5 9.99902l16 66h582l-16 -66c-15.333 -0.666992 -35 -1.66699 -59 -3
s-45.667 -3.33301 -65 -6c-18.667 -2.66699 -35.5 -7.83398 -50.5 -15.501s-22.5 -17.5 -22.5 -29.5c0 -12.667 4.33301 -34.5 13 -65.5s22.334 -77.167 41.001 -138.5l56.5 -179.5l72.5 -226.5l260.5 321.5c76.333 96.333 127.833 163.166 154.5 200.499
c20.667 28.667 33 47.167 37 55.5s6 15.5 6 21.5c0 22.667 -16.333 38.667 -49 48s-73.667 15 -123 17l16 66h504z" />
    <glyph glyph-name="Z" unicode="Z" horiz-adv-x="1232" 
d="M1387 1419l-8.00195 -34.9961l-1173 -1309h323c56.667 0 117.834 4.66699 183.501 14s110.5 23.666 134.5 42.999c52.667 41.333 105 91.666 157 150.999s93.333 112.666 124 159.999h70l-150 -443h-1138l9 35l1173 1309h-313c-39.333 0 -71.166 -1.33301 -95.499 -4
s-48.5 -6 -72.5 -10c-47.333 -8.66699 -106.333 -45.834 -177 -111.501s-128.667 -132.5 -174 -200.5h-70l136 401h1061z" />
    <glyph glyph-name="bracketleft" unicode="[" horiz-adv-x="768" 
d="M928 1519l-20 -86h-355l-382 -1656h355l-20 -87h-533l422 1829h533z" />
    <glyph glyph-name="backslash" unicode="\" horiz-adv-x="960" 
d="M700 -424h-130l-241 1947h132z" />
    <glyph glyph-name="bracketright" unicode="]" horiz-adv-x="768" 
d="M827 1519l-422 -1829h-533l20 87h355l382 1656h-355l20 86h533z" />
    <glyph glyph-name="asciicircum" unicode="^" horiz-adv-x="1317" 
d="M1175 796h-145l-321 524l-324 -524h-145l412 660h113z" />
    <glyph glyph-name="underscore" unicode="_" horiz-adv-x="1317" 
d="M1167 -183l-23 -96h-1327l23 96h1327z" />
    <glyph glyph-name="grave" unicode="`" 
d="M920 1142l-40 -32c-91.333 76.667 -153.666 128 -186.999 154s-67 53.667 -101 83c-20.667 18.667 -35.834 35 -45.501 49s-14.5 32 -14.5 54c0 23.333 7.83301 43.833 23.5 61.5s37.5 26.5 65.5 26.5c26 0 46.667 -6.66699 62 -20s32.333 -36 51 -68l78 -130z" />
    <glyph glyph-name="a" unicode="a" horiz-adv-x="1173" 
d="M696 132l-7.00195 0.00195312c-14.667 -12 -32.167 -27.167 -52.5 -45.5s-44.166 -35.833 -71.499 -52.5c-26 -16.667 -54.333 -31.167 -85 -43.5s-64 -18.5 -100 -18.5c-96.667 0 -172.5 34.667 -227.5 104s-82.5 164 -82.5 284c0 82.667 15.333 163 46 241
s73 148 127 210c51.333 59.333 112.333 107.166 183 143.499s143.334 54.5 218.001 54.5c47.333 0 92.5 -6.33301 135.5 -19s76.833 -27 101.5 -43l183 47l12 -15l-152 -645c-5.33301 -20.667 -10.833 -45.834 -16.5 -75.501s-8.5 -51.5 -8.5 -65.5c0 -38 8 -63.667 24 -77
s43 -20 81 -20c12.667 0 30.667 2 54 6s41.333 8.33301 54 13l-15 -64c-60 -24 -104.667 -41.333 -134 -52s-65 -16 -107 -16c-48 0 -86 14 -114 42s-43.333 63.667 -46 107zM838.998 764.002c0 22 -2.33398 43 -7.00098 63s-14.334 38.667 -29.001 56
c-13.333 16.667 -31.666 30 -54.999 40s-52.666 15 -87.999 15c-48.667 0 -96 -16 -142 -48s-87.333 -75 -124 -129c-34.667 -50.667 -63 -112 -85 -184s-33 -145 -33 -219c0 -40.667 2.33301 -76.667 7 -108s13.667 -60 27 -86c12.667 -25.333 31 -45 55 -59
s54.333 -21 91 -21c37.333 0 76.5 10.5 117.5 31.5s87.167 57.833 138.5 110.5z" />
    <glyph glyph-name="b" unicode="b" horiz-adv-x="1134" 
d="M1064 627c0 -88.667 -15.998 -173.501 -47.998 -254.501s-74.333 -150.833 -127 -209.5c-54 -60 -115 -107.167 -183 -141.5s-140 -51.5 -216 -51.5c-57.333 0 -107.833 4.83301 -151.5 14.5s-80.834 22.834 -111.501 39.501c-31.333 17.333 -57.333 36.833 -78 58.5
s-39.334 45.834 -56.001 72.501l258 1132l8.5 39.5c2.33301 11 3.5 22.167 3.5 33.5c0 24 -4 42.5 -12 55.5s-19.333 22.833 -34 29.5c-14 6 -31.667 10 -53 12s-43 4.33301 -65 7l14 61l371 23l10 -15l-152 -665h4c60 53.333 112.833 90.166 158.5 110.499
s90.167 30.5 133.5 30.5c101.333 0 181 -34.5 239 -103.5s87 -161.833 87 -278.5zM858.002 621.999c0 35.333 -3.16699 70.833 -9.5 106.5s-16.833 65.5 -31.5 89.5c-15.333 25.333 -36.333 45.333 -63 60s-59.667 22 -99 22c-23.333 0 -45.333 -4 -66 -12
s-42 -18.667 -64 -32c-19.333 -12 -38.166 -26.5 -56.499 -43.5l-50.5 -45.5l-133 -593c2 -13.333 8 -28 18 -44s22.667 -30 38 -42c18.667 -15.333 39.667 -27 63 -35s49 -12 77 -12c52.667 0 102.167 15.5 148.5 46.5s86.166 72.833 119.499 125.5
c36.667 57.333 64 121.333 82 192s27 143 27 217z" />
    <glyph glyph-name="c" unicode="c" horiz-adv-x="929" 
d="M445 -28c-116.667 0 -208.834 34.002 -276.501 102.002s-101.5 164.667 -101.5 290c0 83.333 12.833 163.166 38.5 239.499s61.5 144.166 107.5 203.499s104.167 107.833 174.5 145.5s148.5 56.5 234.5 56.5c95.333 0 167.833 -20.167 217.5 -60.5
s74.5 -91.166 74.5 -152.499c0 -46 -10.833 -86.333 -32.5 -121s-54.167 -52 -97.5 -52c-36 0 -63 9 -81 27s-27 38 -27 60c0 21.333 7.33301 50.5 22 87.5l35 89.5c-7.33301 18 -23.666 31.167 -48.999 39.5s-51.666 12.5 -78.999 12.5
c-90.667 0 -168.834 -52.833 -234.501 -158.5s-98.5 -235.167 -98.5 -388.5c0 -94.667 21.167 -169.834 63.5 -225.501s99.5 -83.5 171.5 -83.5c64.667 0 122.167 17.333 172.5 52s98.5 83.667 144.5 147l57 -42c-46 -72.667 -108.5 -135.5 -187.5 -188.5
s-161.833 -79.5 -248.5 -79.5z" />
    <glyph glyph-name="d" unicode="d" horiz-adv-x="1178" 
d="M705 137l-7 -0.000976562l-57 -49.5c-23.333 -20.333 -47.666 -38.166 -72.999 -53.499c-32 -20 -61.5 -35.333 -88.5 -46s-60.167 -16 -99.5 -16c-96.667 0 -172.5 34.833 -227.5 104.5s-82.5 164.5 -82.5 284.5c0 84 14.833 165 44.5 243s70.167 147.333 121.5 208
c50 58.667 110.167 106.167 180.5 142.5s143.833 54.5 220.5 54.5c46 0 91.667 -6 137 -18s82.666 -26.667 111.999 -44l78 340c4 18 6.83301 32 8.5 42s2.5 21 2.5 33c0 24 -4.83301 42.333 -14.5 55s-23.167 22 -40.5 28c-16 6 -38 10 -66 12s-53.333 4.33301 -76 7l14 61
l405 23l10 -15l-277 -1199c-5.33301 -22 -10.833 -47.167 -16.5 -75.5s-8.5 -49.833 -8.5 -64.5c0 -38 8 -63.833 24 -77.5s43 -20.5 81 -20.5c12.667 0 30.667 2 54 6s41.333 8.33301 54 13l-15 -64c-56 -25.333 -102.333 -43 -139 -53s-70.667 -15 -102 -15
c-48 0 -86.167 12.5 -114.5 37.5s-42.5 63.833 -42.5 116.5zM846 773.999c-1.33301 19.333 -6.33398 38.166 -15.001 56.499s-19.667 34.833 -33 49.5c-15.333 16.667 -35.166 30.5 -59.499 41.5s-53.166 16.5 -86.499 16.5c-51.333 0 -99.833 -16 -145.5 -48
s-85.834 -74.667 -120.501 -128c-33.333 -51.333 -60 -113.166 -80 -185.499s-30 -144.833 -30 -217.5c0 -40.667 2.33301 -76.667 7 -108s13.667 -60.333 27 -87c12.667 -24.667 30.667 -44.167 54 -58.5s54.333 -21.5 93 -21.5c36.667 0 76.5 11 119.5 33
s90.833 60.333 143.5 115z" />
    <glyph glyph-name="e" unicode="e" horiz-adv-x="966" 
d="M926 801c0 -70.667 -22.168 -131.332 -66.501 -181.999s-108.833 -91 -193.5 -121c-62 -22.667 -124.667 -41 -188 -55s-133.333 -25.667 -210 -35c0 -105.333 19.5 -185.833 58.5 -241.5s96.167 -83.5 171.5 -83.5c66.667 0 125.5 16.667 176.5 50s101.167 83 150.5 149
l57 -42c-53.333 -81.333 -120 -146.333 -200 -195s-163 -73 -249 -73c-118 0 -208.167 33 -270.5 99s-93.5 159.667 -93.5 281c0 84 13.167 164.167 39.5 240.5s64.833 146.166 115.5 209.499c49.333 62 109.833 112 181.5 150s150.834 57 237.501 57
c96 0 167.167 -19.5 213.5 -58.5s69.5 -88.833 69.5 -149.5zM741.999 826.002c0 26 -3.66992 46.5 -11.0029 61.5s-16.666 26.167 -27.999 33.5c-12 8 -24.667 13 -38 15s-27 3 -41 3c-80 0 -153.833 -44 -221.5 -132s-110.5 -197.667 -128.5 -329
c46.667 6.66699 99.334 16.167 158.001 28.5s107.334 28.5 146.001 48.5c55.333 28.667 96.5 65.5 123.5 110.5s40.5 98.5 40.5 160.5z" />
    <glyph glyph-name="f" unicode="f" horiz-adv-x="673" 
d="M495 886l-175.999 -826c-31.333 -148 -97.333 -269 -198 -363s-204.334 -141 -311.001 -141c-58.667 0 -101.834 11.167 -129.501 33.5s-41.5 50.5 -41.5 84.5c0 28.667 8.66699 54 26 76s42.333 33 75 33c20.667 0 38.834 -4.66699 54.501 -14s29.5 -21 41.5 -35
c9.33301 -11.333 19.833 -26.666 31.5 -45.999l30.5 -50c51.333 4 95.166 38.667 131.499 104s67.833 158.666 94.5 279.999l184 864h-195l21 91h193l14 68c16 77.333 41.333 147 76 209s74 114.667 118 158c43.333 42.667 92.5 76.167 147.5 100.5s107.833 36.5 158.5 36.5
c58.667 0 101.834 -11.167 129.501 -33.5s41.5 -50.5 41.5 -84.5c0 -28.667 -8.16699 -54 -24.5 -76s-41.833 -33 -76.5 -33c-20.667 0 -38.667 4.5 -54 13.5s-29 20.833 -41 35.5c-13.333 16.667 -24 32.334 -32 47.001s-18 31 -30 49c-46 -2 -86.667 -32.333 -122 -91
s-67.333 -156.334 -96 -293.001l-22 -106h251l-21 -91h-249z" />
    <glyph glyph-name="g" unicode="g" horiz-adv-x="1173" 
d="M709 135l-7.00293 1.99805l-56.5 -45c-24.333 -19.333 -49.833 -36.333 -76.5 -51c-30.667 -18 -61.667 -32.667 -93 -44s-66 -17 -104 -17c-96.667 0 -171.167 34.167 -223.5 102.5s-78.5 162.5 -78.5 282.5c0 82.667 15.167 163 45.5 241s71.833 147.333 124.5 208
c50.667 58.667 111.334 105.834 182.001 141.501s144.667 53.5 222 53.5c48 0 93.333 -6.16699 136 -18.5s77 -26.833 103 -43.5l183 47l12 -15l-168 -788c-25.333 -119.333 -57.833 -220.166 -97.5 -302.499s-85.5 -147.5 -137.5 -195.5
c-53.333 -49.333 -112.166 -84.5 -176.499 -105.5s-137.166 -31.5 -218.499 -31.5c-55.333 0 -100.5 4.33301 -135.5 13s-62.5 20 -82.5 34s-33.5 29.833 -40.5 47.5s-10.5 34.5 -10.5 50.5c0 30 9 55.167 27 75.5s42.667 30.5 74 30.5c24.667 0 45.667 -7.16699 63 -21.5
s31.333 -29.833 42 -46.5c11.333 -17.333 22.333 -38 33 -62l24 -54h30c36.667 0 76 8.33301 118 25s80.333 43.667 115 81c35.333 38.667 68.333 90.5 99 155.5s55 148.5 73 250.5zM842.997 773.998c0 18.667 -2.83105 37.833 -8.49805 57.5s-16.167 37.834 -31.5 54.501
c-14.667 16 -33.334 28.667 -56.001 38s-51.667 14 -87 14c-51.333 0 -99.833 -15.5 -145.5 -46.5s-86.834 -73.5 -123.501 -127.5c-34 -50.667 -61.667 -112 -83 -184s-32 -144.333 -32 -217c0 -39.333 2.83301 -75.5 8.5 -108.5s15.5 -61.833 29.5 -86.5
s32.5 -43.834 55.5 -57.501s52.833 -20.5 89.5 -20.5c46.667 0 93 13.5 139 40.5s89.667 61.5 131 103.5z" />
    <glyph glyph-name="h" unicode="h" horiz-adv-x="1152" 
d="M1094 116l-14.999 -64.002c-60 -24 -106.667 -41.5 -140 -52.5s-67 -16.5 -101 -16.5c-53.333 0 -93.333 13.833 -120 41.5s-40 61.834 -40 102.501c0 14.667 1.33301 30.834 4 48.501s7 38.5 13 62.5l98 373c7.33301 28.667 13.166 54.667 17.499 78s6.5 42 6.5 56
c0 44.667 -10.667 80 -32 106s-53 39 -95 39c-42.667 0 -88.834 -13.667 -138.501 -41s-96.834 -65.666 -141.501 -114.999l-169 -734h-186l297 1287l8.5 39c2.33301 10.667 3.5 22 3.5 34c0 24 -4 42.5 -12 55.5s-19.333 22.833 -34 29.5c-12.667 6 -30 10 -52 12
s-44 4.33301 -66 7l14 61l371 23l10 -15l-160 -692h4c68.667 55.333 130 97.166 184 125.499s115.333 42.5 184 42.5c64 0 114 -18.5 150 -55.5s54 -85.5 54 -145.5c0 -12 -1.83301 -33.333 -5.5 -64s-9.5 -61 -17.5 -91l-84 -321c-5.33301 -21.333 -11 -45.833 -17 -73.5
s-9 -49.167 -9 -64.5c0 -38 8.33301 -63.833 25 -77.5s44 -20.5 82 -20.5c12.667 0 30.834 2.16699 54.501 6.5s41.834 8.83301 54.501 13.5z" />
    <glyph glyph-name="i" unicode="i" horiz-adv-x="609" 
d="M551 109l-15.0029 -63.998c-61.333 -24.667 -110.333 -41.834 -147 -51.501s-68 -14.5 -94 -14.5c-53.333 0 -93.333 13.833 -120 41.5s-40 61.834 -40 102.501c0 15.333 1.33301 31.333 4 48s7 37.667 13 63l106 425c5.33301 23.333 10.5 48.333 15.5 75
s7.5 49.334 7.5 68.001c0 37.333 -6.16699 62.166 -18.5 74.499s-37.5 18.5 -75.5 18.5c-14.667 0 -34.167 -2.33301 -58.5 -7s-42.833 -8.66699 -55.5 -12l15 64c52 23.333 98.667 40.666 140 51.999s74 17 98 17c54.667 0 94.334 -13 119.001 -39s37 -61 37 -105
c0 -12 -1.33301 -28.333 -4 -49s-6.66699 -41.334 -12 -62.001l-107 -425c-6.66699 -26 -12.5 -51.5 -17.5 -76.5s-7.5 -45.5 -7.5 -61.5c0 -38 8.5 -64 25.5 -78s44.5 -21 82.5 -21c12.667 0 30.834 1.66699 54.501 5s41.834 7.33301 54.501 12zM621.997 1387
c0 -38 -12.332 -71.167 -36.999 -99.5s-55.334 -42.5 -92.001 -42.5c-34 0 -63.333 13.5 -88 40.5s-37 57.833 -37 92.5c0 36.667 12.333 68.667 37 96s54 41 88 41c38 0 69 -12.833 93 -38.5s36 -55.5 36 -89.5z" />
    <glyph glyph-name="j" unicode="j" horiz-adv-x="596" 
d="M497 865c0 -13.333 -1.50195 -30.665 -4.50195 -51.998s-6.5 -41 -10.5 -59l-69.5 -341c-23 -111.333 -49.167 -229 -78.5 -353c-35.333 -148 -101.5 -269 -198.5 -363s-200.167 -141 -309.5 -141c-58.667 0 -101.834 11.167 -129.501 33.5s-41.5 50.5 -41.5 84.5
c0 28.667 8.66699 54 26 76s42.333 33 75 33c20.667 0 38.834 -4.66699 54.501 -14s29.5 -21 41.5 -35c9.33301 -11.333 19.833 -26.666 31.5 -45.999l30.5 -50c47.333 2.66699 89.833 35.834 127.5 99.501s70.5 158.5 98.5 284.5l71.5 322.5
c20.333 91.667 41.833 196.5 64.5 314.5c5.33301 27.333 10 53.166 14 77.499s6 46.166 6 65.499c0 37.333 -6.16699 62.166 -18.5 74.499s-37.5 18.5 -75.5 18.5c-17.333 0 -39.166 -2.83301 -65.499 -8.5s-45.5 -10.167 -57.5 -13.5l15 64
c52 23.333 99.833 41.166 143.5 53.499s78.167 18.5 103.5 18.5c54.667 0 94.334 -13 119.001 -39s37 -61 37 -105zM630.998 1387c0 -38 -12.332 -71.167 -36.999 -99.5s-55.334 -42.5 -92.001 -42.5c-34 0 -63.333 13.5 -88 40.5s-37 57.833 -37 92.5
c0 36.667 12.333 68.667 37 96s54 41 88 41c38 0 69 -12.833 93 -38.5s36 -55.5 36 -89.5z" />
    <glyph glyph-name="k" unicode="k" horiz-adv-x="1081" 
d="M1071 895c0 -29.333 -11.5029 -56.501 -34.5029 -81.501s-51.5 -37.5 -85.5 -37.5c-22 0 -43.667 3 -65 9s-44.666 15 -69.999 27c-36.667 -20.667 -74.5 -46.167 -113.5 -76.5s-81.5 -67.166 -127.5 -110.499l96.5 -242.5c26.333 -63 48.833 -114.5 67.5 -154.5
c24 -50 50.5 -85.5 79.5 -106.5s60.833 -31.5 95.5 -31.5c16 0 38 2.5 66 7.5s49.667 10.167 65 15.5l-15 -66c-62 -25.333 -110.667 -42.333 -146 -51s-71 -13 -107 -13c-42.667 0 -79.167 11.833 -109.5 35.5s-59.5 66.5 -87.5 128.5
c-27.333 59.333 -51.666 117.833 -72.999 175.5l-63 163.5l-117 -100l-86 -386h-186l297 1287c4.66699 20.667 7.83398 35 9.50098 43s2.5 18 2.5 30c0 24 -4 42.5 -12 55.5s-19.333 22.833 -34 29.5c-14 6 -31.667 10 -53 12s-43 4.33301 -65 7l14 61l371 23l10 -15
l-244 -1041h4c75.333 81.333 143.833 151.833 205.5 211.5l193.5 182.5c48 44 86 74.167 114 90.5s58 24.5 90 24.5c34 0 61.333 -9.5 82 -28.5s31 -44.833 31 -77.5z" />
    <glyph glyph-name="l" unicode="l" horiz-adv-x="584" 
d="M600 1533l-278.999 -1204c-6 -25.333 -11.667 -50.666 -17 -75.999s-8 -46 -8 -62c0 -38 8.5 -64 25.5 -78s44.5 -21 82.5 -21c13.333 0 33.166 1.66699 59.499 5s46.166 7.33301 59.499 12l-15 -64c-60 -24 -106.167 -41 -138.5 -51s-68.833 -15 -109.5 -15
c-53.333 0 -93.833 13.833 -121.5 41.5s-41.5 61.834 -41.5 102.501c0 15.333 1.5 31.333 4.5 48s7.16699 37.667 12.5 63l243 1053c4.66699 20.667 7.83398 35 9.50098 43s2.5 18 2.5 30c0 24 -4 42.5 -12 55.5s-19.333 22.833 -34 29.5c-14 6 -31.667 10 -53 12
s-43 4.33301 -65 7l14 61l371 23z" />
    <glyph glyph-name="m" unicode="m" horiz-adv-x="1801" 
d="M1743 113l-14.9971 -64.002c-61.333 -24.667 -110.333 -41.834 -147 -51.501s-68 -14.5 -94 -14.5c-53.333 0 -93.333 13.833 -120 41.5s-40 61.834 -40 102.501c0 14.667 1.33301 30.834 4 48.501s7 38.5 13 62.5l98 373c7.33301 28.667 13.166 54.667 17.499 78
s6.5 42 6.5 56c0 44.667 -9.66699 80 -29 106s-50 39 -92 39c-44.667 0 -88.5 -10.5 -131.5 -31.5s-91.5 -60.167 -145.5 -117.5l-174 -741h-186l157 668c3.33301 14.667 6.5 30.167 9.5 46.5s4.5 28.5 4.5 36.5c0 43.333 -10.833 77.333 -32.5 102s-53.5 37 -95.5 37
c-38 0 -80 -9.5 -126 -28.5s-99.333 -61.5 -160 -127.5l-169 -734h-186l149 648c5.33301 23.333 10.5 48.333 15.5 75s7.5 49.334 7.5 68.001c0 38.667 -6.33301 64.167 -19 76.5s-37.334 18.5 -74.001 18.5c-14.667 0 -33.5 -2.66699 -56.5 -8
s-40.833 -9.66602 -53.5 -12.999l15 64c52 23.333 98 40.666 138 51.999s74.333 17 103 17c53.333 0 91.166 -14.5 113.499 -43.5s34.166 -68.5 35.499 -118.5h6c78.667 62 143.334 106.333 194.001 133s111 40 181 40c59.333 0 107.5 -17.167 144.5 -51.5
s57.833 -77.5 62.5 -129.5h4c71.333 59.333 134.833 104.333 190.5 135s120.5 46 194.5 46c64 0 113.167 -18.5 147.5 -55.5s51.5 -85.5 51.5 -145.5c0 -12 -1.83301 -33.333 -5.5 -64s-9.5 -61 -17.5 -91l-84 -321c-6 -21.333 -11.667 -45.833 -17 -73.5
s-8 -49.167 -8 -64.5c0 -38 8 -63.833 24 -77.5s43 -20.5 81 -20.5c12.667 0 31 1.66699 55 5s42.333 7.33301 55 12z" />
    <glyph glyph-name="n" unicode="n" horiz-adv-x="1208" 
d="M1149 116l-14.9971 -63.999c-60 -24 -106.667 -41.5 -140 -52.5s-67 -16.5 -101 -16.5c-53.333 0 -93.333 13.833 -120 41.5s-40 61.834 -40 102.501c0 14.667 1.33301 30.834 4 48.501s7 38.5 13 62.5l98 373c7.33301 28.667 13.166 54.667 17.499 78s6.5 42 6.5 56
c0 44.667 -10.667 80 -32 106s-53 39 -95 39c-40.667 0 -86.334 -13.333 -137.001 -40s-98.334 -65.334 -143.001 -116.001l-169 -734h-186l149 648l14.5 69.5c6.33301 30.333 9.5 54.833 9.5 73.5c0 37.333 -6.33301 62.333 -19 75s-38 19 -76 19
c-14.667 0 -33.334 -2.5 -56.001 -7.5s-40.334 -9.16699 -53.001 -12.5l15 64c52 23.333 98 40.666 138 51.999s74.333 17 103 17c52.667 0 90.334 -14.333 113.001 -43s34.667 -68.334 36 -119.001h6c73.333 58.667 136.666 102.167 189.999 130.5s114 42.5 182 42.5
c64 0 114 -18.5 150 -55.5s54 -85.5 54 -145.5c0 -12 -1.83301 -33.333 -5.5 -64s-9.5 -61 -17.5 -91l-84 -321c-6 -21.333 -11.833 -45.833 -17.5 -73.5s-8.5 -49.167 -8.5 -64.5c0 -38 8.33301 -63.833 25 -77.5s44 -20.5 82 -20.5c12.667 0 30.834 2.16699 54.501 6.5
s41.834 8.83301 54.501 13.5z" />
    <glyph glyph-name="o" unicode="o" horiz-adv-x="1100" 
d="M1033 616c0 -78.667 -13.333 -157.335 -40 -236.002s-65.334 -147.667 -116.001 -207c-51.333 -61.333 -113.166 -110.5 -185.499 -147.5s-156.166 -55.5 -251.499 -55.5c-110.667 0 -200.5 35.667 -269.5 107s-103.5 167.333 -103.5 288
c0 88.667 14.667 171.334 44 248.001s68.666 144 117.999 202c50 58 111.833 104.833 185.5 140.5s153.5 53.5 239.5 53.5c118.667 0 211.5 -36.167 278.5 -108.5s100.5 -167.166 100.5 -284.499zM829 653.999c0 94.667 -16.833 165.668 -50.5 213.001s-82.167 71 -145.5 71
c-55.333 0 -107.5 -17 -156.5 -51s-91.167 -89.333 -126.5 -166c-27.333 -58 -47.333 -122.5 -60 -193.5s-19 -136.5 -19 -196.5c0 -95.333 16.5 -167.5 49.5 -216.5s82.833 -73.5 149.5 -73.5c59.333 0 112 18.667 158 56s83.333 84.666 112 141.999
c28.667 56 50.667 120.167 66 192.5s23 146.5 23 222.5z" />
    <glyph glyph-name="p" unicode="p" horiz-adv-x="1184" 
d="M1114 627c0 -89.333 -15.667 -173.998 -47 -253.998s-73 -149.333 -125 -208c-58 -64.667 -120.833 -112.667 -188.5 -144s-137.167 -47 -208.5 -47c-57.333 0 -104.333 7 -141 21s-69.334 31.333 -98.001 52l-58 -262c-4 -16.667 -7.16699 -32.334 -9.5 -47.001
s-3.5 -26.334 -3.5 -35.001c0 -18 6.5 -32.333 19.5 -43s27.833 -18.334 44.5 -23.001c16.667 -5.33301 35.334 -9.33301 56.001 -12s39.334 -4.66699 56.001 -6l-14 -63h-551l14 63c21.333 1.33301 41.333 3 60 5s36.334 5.33301 53.001 10
c20.667 6 37.167 17.167 49.5 33.5s21.166 36.5 26.499 60.5l209 920c5.33301 25.333 10.333 50.833 15 76.5s7 47.834 7 66.501c0 37.333 -5.83301 62.333 -17.5 75s-36.834 19 -75.501 19c-14.667 0 -33.334 -2.83301 -56.001 -8.5l-53 -13.5l15 64
c50.667 22.667 96.334 40.167 137.001 52.5s75.334 18.5 104.001 18.5c46.667 0 82 -11.833 106 -35.5s39 -56.5 45 -98.5h8c45.333 42 93.833 76.667 145.5 104s103.167 41 154.5 41c101.333 0 180.166 -34.5 236.499 -103.5s84.5 -161.833 84.5 -278.5zM802 214.002
c34 54.667 60.167 116.832 78.5 186.499s27.5 143.5 27.5 221.5c0 35.333 -3.16699 70.833 -9.5 106.5s-16.5 65.167 -30.5 88.5c-14.667 26 -34.667 46.167 -60 60.5s-58.666 21.5 -99.999 21.5c-30.667 0 -64.5 -9.33301 -101.5 -28s-82.167 -53.667 -135.5 -105
l-128 -567c4.66699 -38 25.167 -73.5 61.5 -106.5s80.166 -49.5 131.499 -49.5c52.667 0 102 15.333 148 46s85.333 72.334 118 125.001z" />
    <glyph glyph-name="q" unicode="q" horiz-adv-x="1137" 
d="M704 139l-6.99707 0.00292969c-16.667 -14 -33.834 -29.5 -51.501 -46.5s-42.5 -35.5 -74.5 -55.5c-26.667 -18 -56 -33.333 -88 -46s-66 -19 -102 -19c-96.667 0 -172.667 34.667 -228 104s-83 164 -83 284c0 82.667 15.5 163 46.5 241s73.5 148 127.5 210
c52 59.333 113.5 107.166 184.5 143.499s143.833 54.5 218.5 54.5c47.333 0 93.166 -6.33301 137.499 -19s78.833 -27 103.5 -43l179 47l12 -15l-271 -1193c-4 -16.667 -7.16699 -32.334 -9.5 -47.001s-3.5 -26.667 -3.5 -36c0 -18 6.16699 -32.333 18.5 -43
s26.5 -18.334 42.5 -23.001c15.333 -5.33301 32.833 -9.33301 52.5 -12s37.167 -4.66699 52.5 -6l-14 -63h-551l14 63c21.333 1.33301 43 3 65 5s41.333 5.33301 58 10c20.667 6 37.167 17.167 49.5 33.5s21.166 36.5 26.499 60.5zM846.003 764.003
c0 21.333 -2.66602 42.167 -7.99902 62.5s-15.333 39.166 -30 56.499c-14 16.667 -32.833 30 -56.5 40s-53.167 15 -88.5 15c-48.667 0 -96.167 -16 -142.5 -48s-87.833 -75 -124.5 -129c-36 -53.333 -65 -115.166 -87 -185.499s-33 -142.833 -33 -217.5
c0 -38.667 2.5 -74.667 7.5 -108s14.167 -62.333 27.5 -87c12.667 -24.667 30.5 -44.167 53.5 -58.5s53.5 -21.5 91.5 -21.5c45.333 0 89.666 13.833 132.999 41.5s88.333 64.5 135 110.5z" />
    <glyph glyph-name="r" unicode="r" horiz-adv-x="945" 
d="M954 846c0 -18.667 -2.66504 -39.167 -7.99805 -61.5s-13 -40.833 -23 -55.5c-12 -18 -25.167 -31.833 -39.5 -41.5s-34.833 -14.5 -61.5 -14.5c-36 0 -63 9 -81 27s-27 38 -27 60c0 20.667 5 43.834 15 69.501l31 76.5c-8 0 -21.167 -2.16699 -39.5 -6.5
s-40.5 -12.833 -66.5 -25.5s-55.5 -31.667 -88.5 -57s-68.167 -59 -105.5 -101l-161 -716h-186l146 648l14.5 72c6.33301 32 9.5 55.667 9.5 71c0 37.333 -6.33301 62.333 -19 75s-38 19 -76 19c-14.667 0 -33.334 -2.5 -56.001 -7.5s-40.334 -9.16699 -53.001 -12.5l15 64
c52 23.333 98 40.666 138 51.999s74.333 17 103 17c53.333 0 91.333 -14.5 114 -43.5s34 -72.5 34 -130.5h6c79.333 68.667 139.5 116.667 180.5 144s83.833 41 128.5 41c21.333 0 42 -2.66699 62 -8s37 -14.333 51 -27c14.667 -14 25.5 -30.167 32.5 -48.5
s10.5 -44.833 10.5 -79.5z" />
    <glyph glyph-name="s" unicode="s" horiz-adv-x="883" 
d="M362 -29c-98.667 0 -180.829 17.502 -246.496 52.502s-98.5 80.833 -98.5 137.5c0 26.667 9.66699 51.667 29 75s43 35 71 35c26.667 0 48.167 -6.16699 64.5 -18.5s29.166 -26.833 38.499 -43.5c10 -17.333 18.833 -38 26.5 -62l19.5 -59
c10 -11.333 23.833 -21.833 41.5 -31.5s43.167 -14.5 76.5 -14.5c72 0 126.5 18 163.5 54s55.5 84.667 55.5 146c0 45.333 -17.333 81.5 -52 108.5s-86.334 51.833 -155.001 74.5c-24.667 8 -53.667 20.167 -87 36.5s-60 33.833 -80 52.5
c-24 21.333 -43.333 46.666 -58 75.999s-22 64 -22 104c0 85.333 38.167 159.166 114.5 221.499s170.166 93.5 281.499 93.5c26 0 54 -1.33301 84 -4s63 -10 99 -22c31.333 -10.667 58 -26.5 80 -47.5s33 -48.167 33 -81.5c0 -27.333 -9.16699 -52.166 -27.5 -74.499
s-42.5 -33.5 -72.5 -33.5c-24.667 0 -45 5.33301 -61 16s-29.333 25 -40 43s-19.334 37.333 -26.001 58s-14 41 -22 61c-12.667 5.33301 -24 9 -34 11s-23.333 3 -40 3c-65.333 0 -114.833 -17.5 -148.5 -52.5s-50.5 -76.5 -50.5 -124.5
c0 -46.667 15.167 -81.834 45.5 -105.501s80.5 -48.167 150.5 -73.5c90.667 -32.667 156.5 -70 197.5 -112s61.5 -94 61.5 -156c0 -101.333 -39 -183.833 -117 -247.5s-176.333 -95.5 -295 -95.5z" />
    <glyph glyph-name="t" unicode="t" horiz-adv-x="711" 
d="M303 -21c-63.333 0 -109.665 12.834 -138.998 38.501s-44 62.5 -44 110.5c0 15.333 1 29.833 3 43.5s4.66699 29.167 8 46.5l155 668h-178l21 91h182l70 293h180l-68 -293h279l-21 -91h-277l-128 -551c-6 -25.333 -11 -49.833 -15 -73.5s-6 -43.834 -6 -60.501
c0 -36.667 9.16699 -63.5 27.5 -80.5s51.5 -25.5 99.5 -25.5c17.333 0 41.666 2.16699 72.999 6.5s55.666 9.83301 72.999 16.5l-17 -73c-46.667 -18 -90.667 -33.5 -132 -46.5s-90 -19.5 -146 -19.5z" />
    <glyph glyph-name="u" unicode="u" horiz-adv-x="1178" 
d="M707 140l-5.99805 0.000976562l-88 -68c-28 -20.667 -55.667 -38 -83 -52c-32 -16 -61 -27.5 -87 -34.5s-60 -10.5 -102 -10.5c-64 0 -113.667 18.5 -149 55.5s-53 85.5 -53 145.5c0 16 1.33301 35 4 57s9 54.667 19 98l78 317c6.66699 29.333 12.167 55.333 16.5 78
s6.5 44.334 6.5 65.001c0 37.333 -6.16699 62.166 -18.5 74.499s-37.5 18.5 -75.5 18.5c-14.667 0 -33.334 -2.66699 -56.001 -8s-40.334 -9.66602 -53.001 -12.999l15 64c52 23.333 97.833 41 137.5 53s71.5 18 95.5 18c53.333 0 92.5 -12.5 117.5 -37.5
s37.5 -60.5 37.5 -106.5c0 -12 -1.33301 -28.333 -4 -49s-6.66699 -41.334 -12 -62.001l-89 -370c-6.66699 -28 -12.167 -54.167 -16.5 -78.5s-6.5 -42.833 -6.5 -55.5c0 -44.667 9.66699 -80 29 -106s50 -39 92 -39c42.667 0 86.5 11.167 131.5 33.5
s90.167 56.166 135.5 101.499l175 753l174 12l12 -15l-149 -644c-6.66699 -27.333 -12.667 -54.833 -18 -82.5s-8 -47.167 -8 -58.5c0 -38 8.16699 -63.833 24.5 -77.5s43.5 -20.5 81.5 -20.5c12.667 0 30.667 2 54 6s41.333 8.33301 54 13l-15 -64
c-55.333 -22.667 -101.5 -39.667 -138.5 -51s-71.167 -17 -102.5 -17c-54 0 -94.167 15.667 -120.5 47s-39.5 68 -39.5 110z" />
    <glyph glyph-name="v" unicode="v" horiz-adv-x="1102" 
d="M1039 824c0 -101.333 -15.3311 -204.164 -45.998 -308.497s-72.667 -195.5 -126 -273.5c-54 -80.667 -118.333 -146.167 -193 -196.5s-156.667 -75.5 -246 -75.5c-87.333 0 -157 24.167 -209 72.5s-78 113.166 -78 194.499c0 15.333 1.83301 32.666 5.5 51.999l7.5 39
l87 320c6.66699 26 12.5 51.5 17.5 76.5s7.5 46.833 7.5 65.5c0 37.333 -6.5 62.333 -19.5 75s-38.5 19 -76.5 19c-14 0 -33 -3 -57 -9s-42 -10.667 -54 -14l15 64c52 23.333 98.167 41.333 138.5 54s72.5 19 96.5 19c53.333 0 92.833 -12.333 118.5 -37
s38.5 -60.334 38.5 -107.001c0 -13.333 -1.16699 -29.5 -3.5 -48.5s-6.5 -39.833 -12.5 -62.5l-96 -373c-6.66699 -25.333 -11.667 -49.666 -15 -72.999s-5 -38.333 -5 -45c0 -34.667 5.5 -62.834 16.5 -84.501s24.833 -38.5 41.5 -50.5c16 -11.333 33.5 -19.333 52.5 -24
s38.5 -7 58.5 -7c45.333 0 92.166 14.333 140.499 43s90.5 66 126.5 112c39.333 50 71 105.833 95 167.5s36 129.834 36 204.501c0 40 -5.5 70.833 -16.5 92.5s-23.167 40.5 -36.5 56.5c-13.333 16.667 -25.5 34.167 -36.5 52.5s-16.5 44.166 -16.5 77.499
c0 38 12.667 67 38 87s52 30 80 30c39.333 0 70.166 -15.833 92.499 -47.5s33.5 -77.5 33.5 -137.5z" />
    <glyph glyph-name="w" unicode="w" horiz-adv-x="1684" 
d="M1621 824c0 -104.667 -14.9971 -208.331 -44.9971 -310.998s-71 -193 -123 -271c-58 -86.667 -123.667 -153.667 -197 -201s-153 -71 -239 -71c-62.667 0 -120.5 17.333 -173.5 52s-88.5 82.334 -106.5 143.001l-66.5 -65c-20.333 -20 -46.833 -40.667 -79.5 -62
s-62.5 -37.666 -89.5 -48.999s-61.5 -17 -103.5 -17c-50.667 0 -92.5 7.83301 -125.5 23.5s-59.5 36.167 -79.5 61.5c-18.667 24 -32 51.167 -40 81.5s-12 62.166 -12 95.499c0 12.667 1.5 28.667 4.5 48s6.16699 36 9.5 50l85 316c8 30 13.833 57.333 17.5 82
s5.5 45 5.5 61c0 37.333 -6.16699 62.166 -18.5 74.499s-37.5 18.5 -75.5 18.5c-14.667 0 -33.334 -2.66699 -56.001 -8s-40.334 -9.66602 -53.001 -12.999l15 64c52 23.333 97.833 41 137.5 53s71.5 18 95.5 18c53.333 0 92.5 -12.5 117.5 -37.5s37.5 -60.5 37.5 -106.5
c0 -12 -1.33301 -28.333 -4 -49s-6.66699 -41.334 -12 -62.001l-93 -369c-6 -24.667 -11 -50 -15 -76s-6 -45.333 -6 -58c0 -50 10 -87.833 30 -113.5s53.667 -38.5 101 -38.5c42 0 86 11.5 132 34.5s88 56.5 126 100.5l177 759l174 12l12 -15l-141 -609
c-4.66699 -20 -9.5 -44.5 -14.5 -73.5s-7.5 -47.167 -7.5 -54.5c0 -36.667 5.83301 -65.667 17.5 -87s26.5 -37 44.5 -47c17.333 -10 35.333 -16.167 54 -18.5s36.667 -3.5 54 -3.5c45.333 0 91.833 14.333 139.5 43s89.167 66 124.5 112
c39.333 51.333 70.333 108.166 93 170.499s34 129.5 34 201.5c0 40 -5.5 70.833 -16.5 92.5s-23.167 40.5 -36.5 56.5c-13.333 16.667 -25.5 34.167 -36.5 52.5s-16.5 44.166 -16.5 77.499c0 38 12.667 67 38 87s52 30 80 30c39.333 0 70.166 -15.833 92.499 -47.5
s33.5 -77.5 33.5 -137.5z" />
    <glyph glyph-name="x" unicode="x" horiz-adv-x="1026" 
d="M1069 899c-0.666992 -38.667 -14.834 -67.168 -42.501 -85.501s-57.834 -27.5 -90.501 -27.5c-20 0 -42.667 3.5 -68 10.5s-45.333 12.833 -60 17.5c-30 -26.667 -64.833 -66 -104.5 -118s-77.167 -109.333 -112.5 -172c16 -63.333 30.333 -117.5 43 -162.5
s26.334 -90.167 41.001 -135.5c12.667 -40.667 32.5 -73.167 59.5 -97.5s62.5 -36.5 106.5 -36.5c16 0 38 2.16699 66 6.5s49.667 9.16602 65 14.499l-18 -66c-64 -26.667 -112.167 -44 -144.5 -52s-67.166 -12 -104.499 -12c-46.667 0 -85.167 10.667 -115.5 32
s-54.833 65.333 -73.5 132c-13.333 48.667 -24.166 89.5 -32.499 122.5l-24.5 98.5l-76 -117.5c-20 -32.333 -53.333 -76.833 -100 -133.5c-40.667 -49.333 -78 -84.333 -112 -105s-68.667 -31 -104 -31c-31.333 0 -57.166 9.16699 -77.499 27.5s-30.5 43.833 -30.5 76.5
c0 31.333 12 58.166 36 80.499s57 33.5 99 33.5c21.333 0 42.166 -3.83301 62.499 -11.5s41.5 -14.834 63.5 -21.501c25.333 24 58.833 61.333 100.5 112s80.5 108.334 116.5 173.001l-41.5 156c-15 56.667 -29.167 106.334 -42.5 149.001
c-17.333 54 -37.333 88.667 -60 104s-51.667 23 -87 23c-19.333 0 -39.833 -2.66699 -61.5 -8s-41.834 -10.666 -60.501 -15.999l19 66c51.333 21.333 97.5 38.833 138.5 52.5s68.833 20.5 83.5 20.5c46 0 84.167 -11.167 114.5 -33.5s54.5 -65.5 72.5 -129.5
c20.667 -74 32.834 -119.167 36.501 -135.5l21.5 -96.5c32 49.333 58 91 78 125s52.667 79 98 135c42 52.667 80.833 88.834 116.5 108.501s69.834 29.5 102.501 29.5c29.333 0 54.166 -9.5 74.499 -28.5s30.166 -43.5 29.499 -73.5z" />
    <glyph glyph-name="y" unicode="y" horiz-adv-x="1146" 
d="M717 145l-5.99902 -0.000976562c-61.333 -51.333 -119.666 -91.666 -174.999 -120.999s-118.333 -44 -189 -44c-64 0 -114.667 18.5 -152 55.5s-56 85.5 -56 145.5c0 16 1.33301 35 4 57s9 54.667 19 98l78 312c7.33301 30 13 56.167 17 78.5s6 43.833 6 64.5
c0 37.333 -6.16699 62.166 -18.5 74.499s-37.5 18.5 -75.5 18.5c-14.667 0 -33.334 -2.66699 -56.001 -8s-40.334 -9.66602 -53.001 -12.999l15 64c52 23.333 97.833 41 137.5 53s71.5 18 95.5 18c53.333 0 92.833 -12 118.5 -36s38.5 -60 38.5 -108
c0 -12 -1.33301 -28.333 -4 -49s-6.66699 -41.334 -12 -62.001l-91 -365c-6.66699 -28 -12.334 -54.167 -17.001 -78.5s-7 -42.833 -7 -55.5c0 -44.667 10.833 -80 32.5 -106s53.5 -39 95.5 -39c48.667 0 96.167 12 142.5 36s89.833 57 130.5 99l166 748l173 12l12 -15
l-172 -783c-25.333 -114.667 -57.666 -212.667 -96.999 -294s-85.333 -147 -138 -197c-55.333 -52.667 -115 -90.667 -179 -114s-137 -35 -219 -35c-56.667 0 -101.667 4 -135 12s-59.666 19 -78.999 33c-19.333 13.333 -32.333 28.333 -39 45s-10 33.334 -10 50.001
c0 28.667 8.66699 54 26 76s42.333 33 75 33c24.667 0 45.667 -7 63 -21s31.333 -29.333 42 -46c12 -18 23 -38.333 33 -61l24 -54h24c38 0 78.167 9.33301 120.5 28s81.166 47.667 116.499 87c38 42.667 72.167 97.667 102.5 165s54.5 148 72.5 242z" />
    <glyph glyph-name="z" unicode="z" horiz-adv-x="909" 
d="M934 979l-13.001 -58.998l-714 -841c24 -0.666992 50 -1.16699 78 -1.5s58.667 -0.5 92 -0.5c26 0 53.333 0.5 82 1.5s65 2.5 109 4.5c26.667 1.33301 48.5 10.666 65.5 27.999s31.167 36.666 42.5 57.999c10 17.333 24.333 44.5 43 81.5s34 69.5 46 97.5h60l-68 -348
h-784l16 70l703 830h-131c-58 0 -103.667 -1 -137 -3s-64.666 -8.66699 -93.999 -20c-22 -8 -44.667 -31 -68 -69s-45.333 -82 -66 -132h-61l59 303h740z" />
    <glyph glyph-name="braceleft" unicode="{" horiz-adv-x="881" 
d="M689 1463c40.667 24.667 90.332 43.1641 148.999 55.4971s127.667 18.5 207 18.5l-19 -77c-29.333 -1.33301 -61 -4.83301 -95 -10.5s-64 -15.167 -90 -28.5c-30 -15.333 -55.167 -37.833 -75.5 -67.5s-36.166 -68.167 -47.499 -115.5l-51 -224
c-16.667 -72 -39 -131.167 -67 -177.5s-61.333 -83.5 -100 -111.5c-36.667 -26.667 -77.334 -47.667 -122.001 -63s-93.667 -27.666 -147 -36.999l-7 -31c38 -7.33301 74.167 -17.166 108.5 -29.499s62.5 -27.166 84.5 -44.499c25.333 -20 44.666 -43.833 57.999 -71.5
s20 -65.167 20 -112.5c0 -32 -4.5 -70.167 -13.5 -114.5s-17.833 -83.5 -26.5 -117.5c-10 -37.333 -19.333 -76.333 -28 -117s-13 -73.334 -13 -98.001c0 -32 6.5 -57.333 19.5 -76s29.5 -32.667 49.5 -42s42.333 -16 67 -20s52 -7 82 -9l-19 -75
c-134.667 0 -231 19.833 -289 59.5s-87 100.834 -87 183.501c0 34 4.83301 70.667 14.5 110s20.834 82 33.501 128c10 36 20.5 76.167 31.5 120.5s16.5 78.5 16.5 102.5c0 55.333 -19.667 97.333 -59 126s-106.666 46 -201.999 52l30 125c46 4 90.833 10.833 134.5 20.5
s79.5 23.834 107.5 42.501c31.333 20 57.666 45.167 78.999 75.5s37.333 70.166 48 119.499c8.66699 39.333 16 81.833 22 127.5s11.667 84.834 17 117.501c12.667 72.667 34.334 131.667 65.001 177s68.667 81.666 114 108.999z" />
    <glyph glyph-name="bar" unicode="|" horiz-adv-x="768" 
d="M475 -424h-127v1947h127v-1947z" />
    <glyph glyph-name="braceright" unicode="}" horiz-adv-x="881" 
d="M838 655l-29.999 -124.999c-115.333 -8.66699 -201 -33 -257 -73s-93.333 -101.667 -112 -185c-8 -32.667 -15 -73 -21 -121s-12 -89.333 -18 -124c-13.333 -72 -34.833 -131 -64.5 -177s-67.834 -82.667 -114.501 -110c-48 -27.333 -101.333 -46.333 -160 -57
s-124 -16 -196 -16l19 77c26.667 2 58.5 5.83301 95.5 11.5s66.833 14.834 89.5 27.501c29.333 16 54.5 38.5 75.5 67.5s36.833 67.5 47.5 115.5l51 224c16.667 74 39.167 133.5 67.5 178.5s61.5 81.833 99.5 110.5c36 27.333 77.833 48.333 125.5 63s95.5 27 143.5 37l7 31
c-38 8 -74 17.833 -108 29.5s-62.333 26.5 -85 44.5c-25.333 20 -44.666 43.833 -57.999 71.5s-20 65.167 -20 112.5c0 35.333 4.83301 74.833 14.5 118.5s18.5 81.5 26.5 113.5l28.5 120.5c7.66699 32.333 11.5 63.833 11.5 94.5c0 31.333 -6.33301 56.333 -19 75
s-29.334 33 -50.001 43s-44 16.833 -70 20.5s-52.333 6.5 -79 8.5l19 75c134 0 230.167 -19.5 288.5 -58.5s87.5 -100.5 87.5 -184.5c0 -32.667 -5.5 -72 -16.5 -118s-21.5 -86 -31.5 -120c-10.667 -35.333 -21.334 -75.5 -32.001 -120.5s-16 -79.167 -16 -102.5
c0 -56.667 19.833 -98.834 59.5 -126.501s106.834 -44.834 201.501 -51.501z" />
    <glyph glyph-name="asciitilde" unicode="~" horiz-adv-x="1317" 
d="M1212 714c-9.33301 -24.667 -24.833 -55.5 -46.5 -92.5s-45.834 -68.833 -72.501 -95.5c-32.667 -32.667 -67.167 -58.5 -103.5 -77.5s-75.833 -28.5 -118.5 -28.5c-48 0 -92 7.16699 -132 21.5s-76.667 29.833 -110 46.5c-34 17.333 -67.5 33 -100.5 47
s-66.167 21 -99.5 21c-46 0 -84.167 -16.833 -114.5 -50.5s-57.5 -75.5 -81.5 -125.5l-78 31c8.66699 25.333 24.167 56 46.5 92s46.833 68 73.5 96c26 28 59.167 52.667 99.5 74s80.833 32 121.5 32c49.333 0 93.833 -7.16699 133.5 -21.5s76.5 -29.833 110.5 -46.5
l98.5 -47.5c29.667 -13.667 62.834 -20.5 99.501 -20.5c47.333 0 86.5 17.5 117.5 52.5s57.167 76.167 78.5 123.5z" />
    <glyph glyph-name="exclamdown" unicode="&#xa1;" horiz-adv-x="678" 
d="M646 1320c0 -37.333 -13.5 -69.5 -40.5 -96.5s-59.167 -40.5 -96.5 -40.5s-69.5 13.5 -96.5 40.5s-40.5 59.167 -40.5 96.5s13.5 69.166 40.5 95.499s59.167 39.5 96.5 39.5s69.5 -13.167 96.5 -39.5s40.5 -58.166 40.5 -95.499zM493 1003
c-26.667 -177.333 -50.6689 -360 -72.002 -548s-36.666 -301.667 -45.999 -341c-10 -42.667 -29.167 -75.834 -57.5 -99.501s-62.166 -35.5 -101.499 -35.5c-32 0 -56.833 9.33301 -74.5 28s-26.5 42.667 -26.5 72c0 14 1.66699 28.667 5 44s11 42 23 80
c30.667 95.333 69.167 207.333 115.5 336s98.5 283.334 156.5 464.001h78z" />
    <glyph glyph-name="cent" unicode="&#xa2;" horiz-adv-x="1137" 
d="M1043 801c0 -40.667 -10.3311 -77.5 -30.998 -110.5s-50.334 -49.5 -89.001 -49.5c-37.333 0 -64.333 8 -81 24s-25 36 -25 60c0 19.333 7.83301 44.666 23.5 75.999s27.834 56.666 36.501 75.999c-6 14 -22 27.667 -48 41s-53 21.666 -81 24.999l-197 -852
c5.33301 0 11.666 -0.333008 18.999 -1s15 -1 23 -1c66.667 0 126 13.833 178 41.5s107 79.834 165 156.501l61 -42c-23.333 -33.333 -52.166 -67.5 -86.499 -102.5s-69.833 -63.5 -106.5 -85.5c-42.667 -25.333 -85.334 -44.666 -128.001 -57.999s-92.667 -20 -150 -20
l-63 -278h-92l68 284c-108.667 14.667 -190.667 56.5 -246 125.5s-83 155.167 -83 258.5c0 80 12.5 156.5 37.5 229.5s62.167 140.5 111.5 202.5c48 60 107.167 109.333 177.5 148s150.166 60.334 239.499 65.001l59 261h92l-63 -262c88 -6 156.5 -29.333 205.5 -70
s73.5 -88 73.5 -142zM660.002 944c-44.667 -6.66699 -87.167 -24.3301 -127.5 -52.9971s-77.5 -67.334 -111.5 -116.001c-31.333 -46 -57 -102.333 -77 -169s-30 -136.334 -30 -209.001c0 -68.667 12.333 -128.834 37 -180.501s63 -88.5 115 -110.5z" />
    <glyph glyph-name="sterling" unicode="&#xa3;" horiz-adv-x="1274" 
d="M1266 1208c0 -42 -10.502 -81.333 -31.502 -118s-54.833 -55 -101.5 -55c-36 0 -63.333 8.16699 -82 24.5s-28 37.5 -28 63.5c0 24 7.5 52.167 22.5 84.5l40.5 84.5c-4 24 -18.667 44.833 -44 62.5s-59.666 26.5 -102.999 26.5c-23.333 0 -49 -3.66699 -77 -11
s-57.667 -22.333 -89 -45c-30.667 -22.667 -57.667 -54 -81 -94s-40.666 -89.333 -51.999 -148c-9.33301 -48 -19.5 -108.667 -30.5 -182s-21.5 -135.333 -31.5 -186h397l-20 -92h-392c-16 -90 -51.667 -173.333 -107 -250s-128.333 -139 -219 -187l-2 -14h866l-39 -172
h-1048l33 148c50.667 15.333 94 39.333 130 72s66.667 71.667 92 117c24 42 44 87.833 60 137.5s28 99.167 36 148.5h-173l20 92h168c2.66699 26.667 7.5 67 14.5 121s13.5 98.333 19.5 133c26 139.333 89.333 255.333 190 348s219 139 355 139
c94.667 0 169.5 -24.167 224.5 -72.5s82.5 -106.833 82.5 -175.5z" />
    <glyph glyph-name="currency" unicode="&#xa4;" horiz-adv-x="1170" 
d="M1030 228l-86.0029 -87l-188 184c-20.667 -12.667 -43.5 -22.834 -68.5 -30.501s-50.833 -11.5 -77.5 -11.5c-24 0 -49 3.83301 -75 11.5s-49 17.834 -69 30.501l-189 -186l-85 90l184 186c-13.333 20.667 -23.666 43.834 -30.999 69.501s-11 50.5 -11 74.5
c0 28 3.5 53.333 10.5 76s17.5 45.334 31.5 68.001l-184 189l88 86l186 -185c16.667 11.333 39.667 21.166 69 29.499s54.333 12.5 75 12.5c26.667 0 52.834 -4 78.501 -12s47.834 -17.667 66.501 -29l185 184l90 -85l-186 -190c13.333 -20.667 23.833 -43.834 31.5 -69.501
s11.5 -50.5 11.5 -74.5c0 -26 -4.16699 -52 -12.5 -78s-18.5 -48 -30.5 -66zM771.997 559c0 45.333 -15.833 84.168 -47.5 116.501s-69.834 48.5 -114.501 48.5s-82.834 -16 -114.501 -48s-47.5 -71 -47.5 -117c0 -44.667 15.833 -83.334 47.5 -116.001
s69.834 -49 114.501 -49s82.834 16 114.501 48s47.5 71 47.5 117z" />
    <glyph glyph-name="yen" unicode="&#xa5;" horiz-adv-x="1259" 
d="M1480 1419l-15.0029 -65.9971c-12 -0.666992 -30.667 -4.83398 -56 -12.501s-45.333 -16.167 -60 -25.5c-28 -14.667 -48.167 -26.667 -60.5 -36s-34.833 -31.666 -67.5 -66.999c-99.333 -110 -179.166 -202.167 -239.499 -276.5l-236.5 -290.5l-20 -87h400l-22 -92h-399
l-61 -264c-1.33301 -5.33301 -2.5 -11.5 -3.5 -18.5s-1.5 -13.833 -1.5 -20.5c0 -14 3.16699 -26.667 9.5 -38s16.166 -20.666 29.499 -27.999c10.667 -6 32 -12.333 64 -19s56.667 -10.667 74 -12l-15 -66h-605l15 66c16.667 1.33301 42.167 3.66602 76.5 6.99902
s58.833 8 73.5 14c22.667 9.33301 40.334 22.166 53.001 38.499s22 38.5 28 66.5l63 274h-387l22 92h387l15 68c-30.667 113.333 -58.334 209.666 -83.001 288.999l-88 270c-13.333 38.667 -26.166 67 -38.499 85s-28.166 34.667 -47.499 50
c-13.333 10 -30.166 17.667 -50.499 23s-39.5 8.66602 -57.5 9.99902l15 66h560l-15 -66c-66.667 -3.33301 -113.334 -8.83301 -140.001 -16.5s-40 -19.834 -40 -36.501c0 -6.66699 1.16699 -15.667 3.5 -27s6.5 -28.333 12.5 -51c12 -44 31.167 -106.5 57.5 -187.5
l92.5 -287.5l178 221l131 164c46.667 58.667 76.167 97.334 88.5 116.001s18.5 33 18.5 43c0 17.333 -10.667 31 -32 41s-62.666 17 -123.999 21l15 66h483z" />
    <glyph glyph-name="brokenbar" unicode="&#xa6;" horiz-adv-x="768" 
d="M475 723h-127v800h127v-800zM475 -424h-127v810h127v-810z" />
    <glyph glyph-name="section" unicode="&#xa7;" 
d="M956 1402c19.333 -14.667 32.8379 -30.6699 40.5049 -48.0029s11.5 -34.666 11.5 -51.999c0 -28.667 -10 -56 -30 -82s-49 -39 -87 -39c-20.667 0 -37.834 6 -51.501 18s-24.834 27.333 -33.501 46c-9.33301 19.333 -16.333 40.166 -21 62.499l-14 64.5
c-8.66699 2.66699 -20.5 5 -35.5 7s-29.833 3 -44.5 3c-66.667 0 -125.334 -20.333 -176.001 -61s-76 -88.667 -76 -144c0 -22 5.66699 -41.5 17 -58.5s28.666 -33.5 51.999 -49.5c19.333 -13.333 45.333 -28.333 78 -45l118 -59c74.667 -37.333 131.167 -80 169.5 -128
s57.5 -99.667 57.5 -155c0 -76.667 -30.5 -149.167 -91.5 -217.5s-138.5 -118.833 -232.5 -151.5c53.333 -27.333 94.333 -60 123 -98s43 -80.667 43 -128c0 -91.333 -43.5 -171.666 -130.5 -240.999s-199.833 -104 -338.5 -104c-56.667 0 -103.834 6 -141.501 18
s-65.834 26.667 -84.501 44c-19.333 18 -31.333 36.667 -36 56s-5.66699 37.333 -3 54c4 23.333 16 46 36 68s47.667 33 83 33c20.667 0 37.667 -6.16699 51 -18.5s23.666 -27.5 30.999 -45.5c7.33301 -16.667 13.5 -35.5 18.5 -56.5s9.83301 -43.5 14.5 -67.5
c9.33301 -3.33301 20.833 -6.33301 34.5 -9s29.5 -4 47.5 -4c68.667 0 128.834 21.167 180.501 63.5s77.5 93.166 77.5 152.499c0 37.333 -14.833 70.333 -44.5 99s-93.834 66 -192.501 112c-86 40.667 -148.667 85.667 -188 135s-59 104.333 -59 165
c0 78.667 26.667 148.834 80 210.501s131.333 112.834 234 153.501c-52.667 30.667 -93.167 63.334 -121.5 98.001s-42.5 74.667 -42.5 120c0 95.333 44.5 174.333 133.5 237s198.833 94 329.5 94c54.667 0 99.334 -5 134.001 -15s61.334 -22.333 80.001 -37z
M768.005 625.997c0 25.333 -5.33105 48.667 -15.998 70s-26.334 41 -47.001 59c-21.333 18.667 -47.166 36.5 -77.499 53.5s-67.166 35.5 -110.499 55.5c-78.667 -30 -136.334 -68.167 -173.001 -114.5s-55 -98.833 -55 -157.5c0 -28.667 5.33301 -53.667 16 -75
s26.667 -41.333 48 -60c21.333 -18 47.166 -35.667 77.499 -53s68.166 -37 113.499 -59c82 41.333 139.833 85 173.5 131s50.5 96 50.5 150z" />
    <glyph glyph-name="dieresis" unicode="&#xa8;" 
d="M1045 1364c0 -34 -11.5 -63 -34.5 -87s-50.833 -36 -83.5 -36s-60.5 12 -83.5 36s-34.5 53 -34.5 87s11.5 63 34.5 87s50.833 36 83.5 36s60.5 -12 83.5 -36s34.5 -53 34.5 -87zM615 1364c0 -34 -11.5 -63 -34.5 -87s-50.833 -36 -83.5 -36s-60.5 12 -83.5 36
s-34.5 53 -34.5 87s11.5 63 34.5 87s50.833 36 83.5 36s60.5 -12 83.5 -36s34.5 -53 34.5 -87z" />
    <glyph glyph-name="copyright" unicode="&#xa9;" horiz-adv-x="1929" 
d="M1876 602c0 -244 -86.5 -452.167 -259.5 -624.5s-381.5 -258.5 -625.5 -258.5s-452.333 86.167 -625 258.5s-259 380.5 -259 624.5s86.333 452.167 259 624.5s381 258.5 625 258.5s452.5 -86.167 625.5 -258.5s259.5 -380.5 259.5 -624.5zM1777 602
c0 218 -76.333 405 -229 561s-338.334 234 -557.001 234s-404.167 -78 -556.5 -234s-228.5 -343 -228.5 -561s76.167 -405 228.5 -561s337.833 -234 556.5 -234s404.334 78 557.001 234s229 343 229 561zM1402 404c-14 -34.667 -32.5029 -70 -55.5029 -106
s-49.833 -67 -80.5 -93c-34.667 -29.333 -71.667 -52.333 -111 -69s-88 -25 -146 -25c-71.333 0 -137.166 11 -197.499 33s-112.5 54.333 -156.5 97c-43.333 42 -76.833 92.667 -100.5 152s-35.5 125.666 -35.5 198.999c0 70 12.667 135.333 38 196s61.333 114 108 160
c44.667 44 99.5 79 164.5 105s134.5 39 208.5 39c38.667 0 79.5 -6.66699 122.5 -20s75.167 -28 96.5 -44l45 66h59l5 -363h-54c-13.333 40 -27.166 76.167 -41.499 108.5s-34.166 62.833 -59.499 91.5c-23.333 26.667 -52 48 -86 64s-76 24 -126 24
c-80 0 -145.5 -37.167 -196.5 -111.5s-76.5 -176.166 -76.5 -305.499c0 -122 30.833 -218.5 92.5 -289.5s138.834 -106.5 231.501 -106.5c67.333 0 124.666 17.833 171.999 53.5s88 92.167 122 169.5z" />
    <glyph glyph-name="ordfeminine" unicode="&#xaa;" 
d="M663 739l-5.99902 -0.00195312c-10 -9.33301 -24.833 -22.333 -44.5 -39s-38.167 -30 -55.5 -40c-24.667 -14.667 -47.834 -26.167 -69.501 -34.5s-48.834 -12.5 -81.501 -12.5c-81.333 0 -144.333 28.167 -189 84.5s-67 132.833 -67 229.5
c0 70.667 13.667 137.5 41 200.5s62.333 118.167 105 165.5c43.333 48 94.833 86.667 154.5 116s121.167 44 184.5 44c34.667 0 69.5 -4.5 104.5 -13.5s65.167 -21.167 90.5 -36.5l146 38l18 -12l-134 -518c-5.33301 -19.333 -10.166 -40.666 -14.499 -63.999
s-6.5 -40.333 -6.5 -51c0 -31.333 6.66699 -52.166 20 -62.499s36 -15.5 68 -15.5c12 0 27.667 2.33301 47 7s34 8.66699 44 12l-14 -60c-50 -19.333 -87.5 -33.333 -112.5 -42s-54.833 -13 -89.5 -13c-40.667 0 -73.5 11 -98.5 33s-38.5 50 -40.5 84zM785.001 1254
c0 18 -1.33301 34.499 -4 49.499s-9.66699 29.833 -21 44.5c-10 12.667 -24 22.834 -42 30.501s-41 11.5 -69 11.5c-38.667 0 -77.334 -12.667 -116.001 -38s-73.334 -60 -104.001 -104c-28.667 -41.333 -52.167 -90.833 -70.5 -148.5s-27.5 -115.5 -27.5 -173.5
c0 -35.333 1.33301 -64.5 4 -87.5s9.66699 -45.5 21 -67.5c9.33301 -18.667 23.333 -33.5 42 -44.5s43 -16.5 73 -16.5c40.667 0 79.334 13.667 116.001 41s65.334 52 86.001 74z" />
    <glyph glyph-name="guillemotleft" unicode="&#xab;" horiz-adv-x="1190" 
d="M1123 889l-361 -367.003l191 -369l-58 -33l-303 332c-4 4.66699 -9.33301 11.834 -16 21.501s-10 21.834 -10 36.501c0 16.667 4.83301 32.834 14.5 48.501s26.5 32.167 50.5 49.5l452 329zM734 888.997l-361 -367.003l191 -369l-58 -33l-303 332
c-4 4.66699 -9.33301 11.834 -16 21.501s-10 21.834 -10 36.501c0 16.667 4.83301 32.834 14.5 48.501s26.5 32.167 50.5 49.5l452 329z" />
    <glyph glyph-name="logicalnot" unicode="&#xac;" horiz-adv-x="1317" 
d="M1188 76h-132v451h-887v125h1019v-576z" />
    <glyph glyph-name="registered" unicode="&#xae;" horiz-adv-x="1929" 
d="M1876 602c0 -244 -86.5 -452.167 -259.5 -624.5s-381.5 -258.5 -625.5 -258.5s-452.333 86.167 -625 258.5s-259 380.5 -259 624.5s86.333 452.167 259 624.5s381 258.5 625 258.5s452.5 -86.167 625.5 -258.5s259.5 -380.5 259.5 -624.5zM1777 602
c0 218 -76.333 405 -229 561s-338.334 234 -557.001 234s-404.167 -78 -556.5 -234s-228.5 -343 -228.5 -561s76.167 -405 228.5 -561s337.833 -234 556.5 -234s404.334 78 557.001 234s229 343 229 561zM1569 145l-287 -0.000976562
c-63.333 89.333 -118.333 163.833 -165 223.5l-143 180.5h-105v-262c0 -14.667 2.83301 -28.167 8.5 -40.5s16.834 -21.5 33.501 -27.5c7.33301 -2.66699 22.666 -5.83398 45.999 -9.50098s41 -5.83398 53 -6.50098v-58h-439v58c12 1.33301 28.333 3.33301 49 6s36 6 46 10
c14.667 6 25.167 14.667 31.5 26s9.5 25.333 9.5 42v642c0 16 -2.33301 29.833 -7 41.5s-16 20.5 -34 26.5c-14 4.66699 -30 8.83398 -48 12.501s-33.667 6.16699 -47 7.5v58h492c37.333 0 74 -4 110 -12s68.667 -20.667 98 -38c28.667 -17.333 52 -40.166 70 -68.499
s27 -62.5 27 -102.5c0 -72.667 -19.833 -129.667 -59.5 -171s-98.167 -72.666 -175.5 -93.999l136.5 -166.5l99.5 -123.5c18.667 -23.333 37 -40.666 55 -51.999s35.333 -19.666 52 -24.999c13.333 -4.66699 29.333 -8.83398 48 -12.501s33.667 -5.83398 45 -6.50098v-58z
M1182 833.999c0 55.333 -16.667 97.333 -50 126s-82.333 43 -147 43h-116v-378h87c69.333 0 124.333 18.333 165 55s61 88 61 154z" />
    <glyph glyph-name="macron" unicode="&#xaf;" horiz-adv-x="1221" 
d="M1562 1701l-23 -96h-1327l23 96h1327z" />
    <glyph glyph-name="degree" unicode="&#xb0;" horiz-adv-x="859" 
d="M830 1128c0 -91.333 -30.5 -168.333 -91.5 -231s-139.167 -94 -234.5 -94c-96 0 -174.167 31.667 -234.5 95s-90.5 140 -90.5 230c0 94 31 171.667 93 233s139.333 92 232 92c95.333 0 173.5 -31.333 234.5 -94s91.5 -139.667 91.5 -231zM682 1120
c0 83.333 -16.332 147.167 -48.999 191.5s-76 66.5 -130 66.5c-54.667 0 -97.667 -22.333 -129 -67s-47 -104.667 -47 -180c0 -78 15.667 -139.667 47 -185s75.666 -68 132.999 -68c49.333 0 90.833 21.5 124.5 64.5s50.5 102.167 50.5 177.5z" />
    <glyph glyph-name="plusminus" unicode="&#xb1;" horiz-adv-x="1317" 
d="M1193 0h-1019v125h446v402h-446v125h446v451h127v-451h446v-125h-446v-402h446v-125z" />
    <glyph glyph-name="uni00B2" unicode="&#xb2;" 
d="M987 1225c0 -53.333 -10 -101.501 -30 -144.501s-45.667 -79.5 -77 -109.5c-32 -30.667 -67.333 -57.667 -106 -81s-81.334 -45.333 -128.001 -66c-47.333 -20.667 -105 -49.167 -173 -85.5s-125.667 -72.833 -173 -109.5h624l-32 -139h-753l26 111
c43.333 53.333 99.333 101.166 168 143.499l195 118.5c28.667 17.333 62.167 40.333 100.5 69s67.833 55.667 88.5 81c26 31.333 46.333 64 61 98s22 75.333 22 124c0 46.667 -13.667 83 -41 109s-63.666 39 -108.999 39c-34 0 -65.833 -6.16699 -95.5 -18.5
s-52.5 -28.166 -68.5 -47.499c0 -6 0.5 -14.5 1.5 -25.5s1.5 -23.833 1.5 -38.5c0 -44.667 -10 -78.334 -30 -101.001s-53.333 -34 -100 -34c-26 0 -44.667 7.5 -56 22.5s-17 32.5 -17 52.5c0 28 9.83301 56.833 29.5 86.5s47.167 57.834 82.5 84.501
c34 26 75.5 47.333 124.5 64s102.167 25 159.5 25c90 0 163.333 -20.167 220 -60.5s85 -96.166 85 -167.499z" />
    <glyph glyph-name="uni00B3" unicode="&#xb3;" 
d="M970 1254c0 -20.667 -4.49902 -44.165 -13.499 -70.498s-22.833 -50.166 -41.5 -71.499c-21.333 -24 -47.166 -46 -77.499 -66s-72.166 -36.667 -125.499 -50l-2 -9c25.333 -2.66699 51.333 -8.5 78 -17.5s50 -20.5 70 -34.5c20.667 -14.667 37.5 -33.5 50.5 -56.5
s19.5 -50.167 19.5 -81.5c0 -98.667 -45.833 -180.334 -137.5 -245.001s-206.167 -97 -343.5 -97c-91.333 0 -163.5 18 -216.5 54s-79.5 77 -79.5 123c0 25.333 9.5 52.166 28.5 80.499s45.167 42.5 78.5 42.5c32 0 56 -6.5 72 -19.5s24 -29.833 24 -50.5
c0 -16.667 -4.83301 -35 -14.5 -55s-18.834 -36.333 -27.501 -49c13.333 -15.333 32.666 -28.833 57.999 -40.5s57 -17.5 95 -17.5c76 0 140.5 26.667 193.5 80s79.5 121.333 79.5 204c0 40 -13.833 71.333 -41.5 94s-73.167 34 -136.5 34h-110l24 90h74
c76.667 0 134.667 22.667 174 68s59 102 59 170c0 33.333 -10.5 61.833 -31.5 85.5s-55.5 35.5 -103.5 35.5c-32.667 0 -62.834 -6.16699 -90.501 -18.5s-49.5 -26.833 -65.5 -43.5c0 -5.33301 0.5 -11.833 1.5 -19.5s1.5 -16.5 1.5 -26.5c0 -42 -8.5 -74.5 -25.5 -97.5
s-50.5 -34.5 -100.5 -34.5c-25.333 0 -43.666 6.66699 -54.999 20s-17 29.666 -17 48.999c0 26.667 8.66699 53.167 26 79.5s44 52.5 80 78.5c33.333 23.333 74.666 42.833 123.999 58.5s104.333 23.5 165 23.5c56 0 102.667 -6.66699 140 -20s66.333 -30.333 87 -51
c20 -20 33.833 -41.167 41.5 -63.5s11.5 -43.833 11.5 -64.5z" />
    <glyph glyph-name="acute" unicode="&#xb4;" 
d="M904 1466c0 -26.667 -6.33301 -48.166 -19 -64.499s-32 -34.5 -58 -54.5l-121.5 -89l-201.5 -148l-36 32c66 88 111.833 150.333 137.5 187l82.5 121c23.333 36 45.833 59.667 67.5 71s45.167 17 70.5 17c22 0 40.5 -7.33301 55.5 -22s22.5 -31.334 22.5 -50.001z" />
    <glyph glyph-name="uni00B5" unicode="&#xb5;" horiz-adv-x="1161" 
d="M690 140l-6.00098 0.000976562l-65 -53.5c-26 -21.667 -50.667 -38.834 -74 -51.501c-32 -18 -62.167 -31.833 -90.5 -41.5s-67.166 -14.5 -116.499 -14.5c-40 0 -75.5 9.16699 -106.5 27.5s-52.833 39.5 -65.5 63.5h-6l-13 -68
c-8.66699 -36.667 -13.167 -71.834 -13.5 -105.501s-0.5 -67.5 -0.5 -101.5c0 -22.667 -0.333008 -46.5 -1 -71.5s-3.33398 -46.833 -8.00098 -65.5c-7.33301 -31.333 -23.166 -56.166 -47.499 -74.499s-49.5 -27.5 -75.5 -27.5c-22 0 -39.167 6.33301 -51.5 19
s-18.5 30.667 -18.5 54c0 26 15.667 78.167 47 156.5s53 135.166 65 170.499c11.333 34 21.333 66.5 30 97.5s15.667 58.5 21 82.5l194 846l177 12l12 -12l-144 -628c-8.66699 -36 -13.834 -63.167 -15.501 -81.5s-2.5 -32.166 -2.5 -41.499
c0 -45.333 11.667 -79.5 35 -102.5s53.666 -34.5 90.999 -34.5c48.667 0 98.834 15.167 150.501 45.5s89.834 60.5 114.501 90.5l174 752l176 12l12 -12l-150 -647c-4.66699 -19.333 -10 -44.833 -16 -76.5s-9 -53.5 -9 -65.5c0 -38 8 -63.667 24 -77s43 -20 81 -20
c12.667 0 30.667 2 54 6s41.333 8.33301 54 13l-15 -64c-55.333 -22.667 -101.5 -39.667 -138.5 -51s-71.167 -17 -102.5 -17c-54 0 -94.167 15.667 -120.5 47s-39.5 68 -39.5 110z" />
    <glyph glyph-name="paragraph" unicode="&#xb6;" 
d="M1135 1345l-110.999 -0.000976562l-360 -1561h-103l360 1561h-160l-360 -1561h-103l212 917c-88.667 0 -163.334 25.667 -224.001 77s-91 124 -91 218c0 118.667 43 218.834 129 300.501s197 122.5 333 122.5h495z" />
    <glyph glyph-name="periodcentered" unicode="&#xb7;" horiz-adv-x="572" 
d="M433 559c0 -37.333 -13.5 -69.166 -40.5 -95.499s-59.167 -39.5 -96.5 -39.5s-69.5 13.167 -96.5 39.5s-40.5 58.166 -40.5 95.499s13.5 69.5 40.5 96.5s59.167 40.5 96.5 40.5s69.5 -13.5 96.5 -40.5s40.5 -59.167 40.5 -96.5z" />
    <glyph glyph-name="cedilla" unicode="&#xb8;" 
d="M669 -226c0 -43.333 -12.501 -79.833 -37.501 -109.5s-57.5 -52.167 -97.5 -67.5c-37.333 -14.667 -81.166 -25.167 -131.499 -31.5s-106.833 -9.5 -169.5 -9.5l15 72c28 0 59.333 0.5 94 1.5s63.667 4.5 87 10.5c27.333 6.66699 49 16.167 65 28.5s24 31.5 24 57.5
c0 21.333 -11.5 37.833 -34.5 49.5s-62.833 17.5 -119.5 17.5l46 224h78l-25 -116c68 0 119.333 -11.833 154 -35.5s52 -54.167 52 -91.5z" />
    <glyph glyph-name="uni00B9" unicode="&#xb9;" 
d="M823 1445l-33.4971 -123.502c-11.667 -44.333 -21.167 -82.166 -28.5 -113.499l-130 -564c-0.666992 -2.66699 -1.16699 -5.66699 -1.5 -9s-0.5 -6.33301 -0.5 -9c0 -12 2 -21.833 6 -29.5s11.667 -14.5 23 -20.5c11.333 -5.33301 31.666 -10 60.999 -14s54.333 -6 75 -6
l-16 -66h-545l16 66c20 0.666992 46.667 2.16699 80 4.5s57 5.83301 71 10.5c15.333 5.33301 28.166 12.833 38.499 22.5s17.5 23.834 21.5 42.501l147 636h-197l17 73h52c53.333 0 103.166 9.16699 149.499 27.5s86.833 42.5 121.5 72.5h73z" />
    <glyph glyph-name="ordmasculine" unicode="&#xba;" 
d="M1000 1133c0 -64.667 -12.168 -129.333 -36.501 -194s-57.833 -121 -100.5 -169c-45.333 -51.333 -98.666 -91.5 -159.999 -120.5s-128 -43.5 -200 -43.5c-92.667 0 -169 30.167 -229 90.5s-90 139.5 -90 237.5c0 68 12.5 133.5 37.5 196.5s59.5 118.833 103.5 167.5
c43.333 47.333 95.333 85 156 113s126 42 196 42c101.333 0 180.5 -30.167 237.5 -90.5s85.5 -136.833 85.5 -229.5zM817.999 1166c0 68.667 -13.332 122.167 -39.999 160.5s-65.667 57.5 -117 57.5c-48.667 0 -93.667 -16.333 -135 -49s-73.333 -76.334 -96 -131.001
c-21.333 -46 -37.333 -96.833 -48 -152.5s-16 -106.167 -16 -151.5c0 -64.667 13 -118.334 39 -161.001s66.667 -64 122 -64c43.333 0 83.333 14.667 120 44s67.667 68 93 116c25.333 48.667 44.666 101.334 57.999 158.001s20 114.334 20 173.001z" />
    <glyph glyph-name="guillemotright" unicode="&#xbb;" horiz-adv-x="1190" 
d="M1060 546c0 -16.667 -4.83301 -32.8311 -14.5 -48.498s-26.5 -32.167 -50.5 -49.5l-452 -329l-40 48l361 367l-191 369l58 33l303 -332c4 -4.66699 9.33301 -11.834 16 -21.501s10 -21.834 10 -36.501zM671 546.003c0 -16.667 -4.83301 -32.8311 -14.5 -48.498
s-26.5 -32.167 -50.5 -49.5l-452 -329l-40 48l361 367l-191 369l58 33l303 -332c4 -4.66699 9.33301 -11.834 16 -21.501s10 -21.834 10 -36.501z" />
    <glyph glyph-name="onequarter" unicode="&#xbc;" horiz-adv-x="2150" 
d="M734 1445l-33.4971 -123.502c-11.667 -44.333 -21.167 -82.166 -28.5 -113.499l-130 -564c-0.666992 -2.66699 -1.16699 -5.66699 -1.5 -9s-0.5 -6.33301 -0.5 -9c0 -12 2 -21.833 6 -29.5s11.667 -14.5 23 -20.5c11.333 -5.33301 31.666 -10 60.999 -14s54.333 -6 75 -6
l-16 -66h-545l16 66c20 0.666992 46.667 2.16699 80 4.5s57 5.83301 71 10.5c15.333 5.33301 28.166 12.833 38.499 22.5s17.5 23.834 21.5 42.501l147 636h-197l17 73h52c53.333 0 103.166 9.16699 149.499 27.5s86.833 42.5 121.5 72.5h73zM1948 318.998l-25 -104h-159
l-53 -235h-166l53 235h-495l29 123l687 623h118l-148 -642h159zM1726 766.998l-493 -448h390zM1651 1419l-1047 -1419h-135l1045 1419h137z" />
    <glyph glyph-name="onehalf" unicode="&#xbd;" horiz-adv-x="2150" 
d="M734 1445l-33.4971 -123.502c-11.667 -44.333 -21.167 -82.166 -28.5 -113.499l-130 -564c-0.666992 -2.66699 -1.16699 -5.66699 -1.5 -9s-0.5 -6.33301 -0.5 -9c0 -12 2 -21.833 6 -29.5s11.667 -14.5 23 -20.5c11.333 -5.33301 31.666 -10 60.999 -14s54.333 -6 75 -6
l-16 -66h-545l16 66c20 0.666992 46.667 2.16699 80 4.5s57 5.83301 71 10.5c15.333 5.33301 28.166 12.833 38.499 22.5s17.5 23.834 21.5 42.501l147 636h-197l17 73h52c53.333 0 103.166 9.16699 149.499 27.5s86.833 42.5 121.5 72.5h73zM2041 734.998
c0 -53.333 -10 -101.501 -30 -144.501s-45.667 -79.5 -77 -109.5c-32 -30.667 -67.333 -57.667 -106 -81s-81.334 -45.333 -128.001 -66c-47.333 -20.667 -105 -49.167 -173 -85.5s-125.667 -72.833 -173 -109.5h624l-32 -139h-753l26 111
c43.333 53.333 99.333 101.166 168 143.499l195 118.5c28.667 17.333 62.167 40.333 100.5 69s67.833 55.667 88.5 81c26 31.333 46.333 64 61 98s22 75.333 22 124c0 46.667 -13.667 83 -41 109s-63.666 39 -108.999 39c-34 0 -65.833 -6.16699 -95.5 -18.5
s-52.5 -28.166 -68.5 -47.499c0 -6 0.5 -14.5 1.5 -25.5s1.5 -23.833 1.5 -38.5c0 -44.667 -10 -78.334 -30 -101.001s-53.333 -34 -100 -34c-26 0 -44.667 7.5 -56 22.5s-17 32.5 -17 52.5c0 28 9.83301 56.833 29.5 86.5s47.167 57.834 82.5 84.501
c34 26 75.5 47.333 124.5 64s102.167 25 159.5 25c90 0 163.333 -20.167 220 -60.5s85 -96.166 85 -167.499zM1641 1419l-1047 -1419h-135l1045 1419h137z" />
    <glyph glyph-name="threequarters" unicode="&#xbe;" horiz-adv-x="2150" 
d="M970 1254c0 -20.667 -4.49902 -44.165 -13.499 -70.498s-22.833 -50.166 -41.5 -71.499c-21.333 -24 -47.166 -46 -77.499 -66s-72.166 -36.667 -125.499 -50l-2 -9c25.333 -2.66699 51.333 -8.5 78 -17.5s50 -20.5 70 -34.5c20.667 -14.667 37.5 -33.5 50.5 -56.5
s19.5 -50.167 19.5 -81.5c0 -98.667 -45.833 -180.334 -137.5 -245.001s-206.167 -97 -343.5 -97c-91.333 0 -163.5 18 -216.5 54s-79.5 77 -79.5 123c0 25.333 9.5 52.166 28.5 80.499s45.167 42.5 78.5 42.5c32 0 56 -6.5 72 -19.5s24 -29.833 24 -50.5
c0 -16.667 -4.83301 -35 -14.5 -55s-18.834 -36.333 -27.501 -49c13.333 -15.333 32.666 -28.833 57.999 -40.5s57 -17.5 95 -17.5c76 0 140.5 26.667 193.5 80s79.5 121.333 79.5 204c0 40 -13.833 71.333 -41.5 94s-73.167 34 -136.5 34h-110l24 90h74
c76.667 0 134.667 22.667 174 68s59 102 59 170c0 33.333 -10.5 61.833 -31.5 85.5s-55.5 35.5 -103.5 35.5c-32.667 0 -62.834 -6.16699 -90.501 -18.5s-49.5 -26.833 -65.5 -43.5c0 -5.33301 0.5 -11.833 1.5 -19.5s1.5 -16.5 1.5 -26.5c0 -42 -8.5 -74.5 -25.5 -97.5
s-50.5 -34.5 -100.5 -34.5c-25.333 0 -43.666 6.66699 -54.999 20s-17 29.666 -17 48.999c0 26.667 8.66699 53.167 26 79.5s44 52.5 80 78.5c33.333 23.333 74.666 42.833 123.999 58.5s104.333 23.5 165 23.5c56 0 102.667 -6.66699 140 -20s66.333 -30.333 87 -51
c20 -20 33.833 -41.167 41.5 -63.5s11.5 -43.833 11.5 -64.5zM2038 319.002l-25 -104h-159l-53 -235h-166l53 235h-495l29 123l687 623h118l-148 -642h159zM1816 767.002l-493 -448h390zM1802 1419l-1047 -1419h-135l1045 1419h137z" />
    <glyph glyph-name="questiondown" unicode="&#xbf;" horiz-adv-x="980" 
d="M875 1317c0 -37.333 -13.5 -69.5 -40.5 -96.5s-59.167 -40.5 -96.5 -40.5s-69.5 13.5 -96.5 40.5s-40.5 59.167 -40.5 96.5s13.5 69.166 40.5 95.499s59.167 39.5 96.5 39.5s69.5 -13.167 96.5 -39.5s40.5 -58.166 40.5 -95.499zM824 246
c0 -28.667 -9.16699 -59.167 -27.5 -91.5s-44.166 -60.833 -77.499 -85.5c-36.667 -27.333 -77.667 -49 -123 -65s-100.666 -24 -165.999 -24c-114.667 0 -205.334 30.333 -272.001 91s-100 141.334 -100 242.001c0 146 49.833 265.5 149.5 358.5s231.5 150.167 395.5 171.5
l50 212h92l-79 -379c-53.333 -4.66699 -105.166 -14.667 -155.499 -30s-95.833 -38.333 -136.5 -69c-40 -30 -72 -69.667 -96 -119s-36 -109 -36 -179c0 -71.333 18.5 -126.666 55.5 -165.999s88.833 -59 155.5 -59c27.333 0 54.166 4.66699 80.499 14
s45.166 18.333 56.499 27v68.5c0 24.333 1.66699 47.166 5 68.499c5.33301 29.333 21.5 53.666 48.5 72.999s59.5 29 97.5 29c28 0 48.833 -8.66699 62.5 -26s20.5 -38 20.5 -62z" />
    <glyph glyph-name="Agrave" unicode="&#xc0;" horiz-adv-x="1374" 
d="M875 576l-89 554l-340 -554h429zM722 0l14.998 65.999c20.667 2 44.834 4.83301 72.501 8.5s49.167 7.83398 64.5 12.501c20.667 6.66699 36.167 13.667 46.5 21s15.5 18.666 15.5 33.999c0 5.33301 -4 38 -12 98l-34 253h-498c-22 -34.667 -45.333 -74.834 -70 -120.501
l-57 -104.5c-12 -21.333 -23.5 -45.166 -34.5 -71.499s-16.5 -43.833 -16.5 -52.5c0 -22 17.667 -39.667 53 -53s79.666 -21.666 132.999 -24.999l-15 -66h-545l15 66c17.333 1.33301 39.833 5.16602 67.5 11.499s50.834 14.833 69.501 25.5
c23.333 13.333 45.833 29.833 67.5 49.5s44.834 49.167 69.501 88.5l379.5 610l363.5 588h80l189 -1229c4 -24.667 10.667 -45.5 20 -62.5s23.333 -32.833 42 -47.5c13.333 -9.33301 31.333 -17.166 54 -23.499s42.667 -9.83301 60 -10.5l-15 -66h-580zM1072 1546l-34 -39
l-200.5 102.5l-130.5 66.5c-26 14 -46.333 28 -61 42s-22 33.667 -22 59c0 26 9 47.667 27 65s41 26 69 26c18 0 35.833 -6.33301 53.5 -19s36.167 -28.667 55.5 -48l95.5 -100z" />
    <glyph glyph-name="Aacute" unicode="&#xc1;" horiz-adv-x="1374" 
d="M875 576l-89 554l-340 -554h429zM722 0l14.998 65.999c20.667 2 44.834 4.83301 72.501 8.5s49.167 7.83398 64.5 12.501c20.667 6.66699 36.167 13.667 46.5 21s15.5 18.666 15.5 33.999c0 5.33301 -4 38 -12 98l-34 253h-498c-22 -34.667 -45.333 -74.834 -70 -120.501
l-57 -104.5c-12 -21.333 -23.5 -45.166 -34.5 -71.499s-16.5 -43.833 -16.5 -52.5c0 -22 17.667 -39.667 53 -53s79.666 -21.666 132.999 -24.999l-15 -66h-545l15 66c17.333 1.33301 39.833 5.16602 67.5 11.499s50.834 14.833 69.501 25.5
c23.333 13.333 45.833 29.833 67.5 49.5s44.834 49.167 69.501 88.5l379.5 610l363.5 588h80l189 -1229c4 -24.667 10.667 -45.5 20 -62.5s23.333 -32.833 42 -47.5c13.333 -9.33301 31.333 -17.166 54 -23.499s42.667 -9.83301 60 -10.5l-15 -66h-580zM1237 1796
c0 -30 -9.33105 -54.166 -27.998 -72.499s-43.334 -34.833 -74.001 -49.5l-142 -65.5l-219 -101.5l-27 39l161 145.5l121 117.5c25.333 25.333 47.666 41.5 66.999 48.5s38.333 10.5 57 10.5c24 0 44 -6.83301 60 -20.5s24 -30.834 24 -51.501z" />
    <glyph glyph-name="Acircumflex" unicode="&#xc2;" horiz-adv-x="1374" 
d="M875 576l-89 554l-340 -554h429zM722 0l14.998 65.999c20.667 2 44.834 4.83301 72.501 8.5s49.167 7.83398 64.5 12.501c20.667 6.66699 36.167 13.667 46.5 21s15.5 18.666 15.5 33.999c0 5.33301 -4 38 -12 98l-34 253h-498c-22 -34.667 -45.333 -74.834 -70 -120.501
l-57 -104.5c-12 -21.333 -23.5 -45.166 -34.5 -71.499s-16.5 -43.833 -16.5 -52.5c0 -22 17.667 -39.667 53 -53s79.666 -21.666 132.999 -24.999l-15 -66h-545l15 66c17.333 1.33301 39.833 5.16602 67.5 11.499s50.834 14.833 69.501 25.5
c23.333 13.333 45.833 29.833 67.5 49.5s44.834 49.167 69.501 88.5l379.5 610l363.5 588h80l189 -1229c4 -24.667 10.667 -45.5 20 -62.5s23.333 -32.833 42 -47.5c13.333 -9.33301 31.333 -17.166 54 -23.499s42.667 -9.83301 60 -10.5l-15 -66h-580zM1212 1539l-49 -32
l-234 212l-320 -212l-47 32l290 284c12.667 12 26.167 22.5 40.5 31.5s34.5 13.5 60.5 13.5c28 0 46.833 -4.5 56.5 -13.5s17.167 -18.167 22.5 -27.5z" />
    <glyph glyph-name="Atilde" unicode="&#xc3;" horiz-adv-x="1374" 
d="M875 576l-89 554l-340 -554h429zM722 0l14.998 65.999c20.667 2 44.834 4.83301 72.501 8.5s49.167 7.83398 64.5 12.501c20.667 6.66699 36.167 13.667 46.5 21s15.5 18.666 15.5 33.999c0 5.33301 -4 38 -12 98l-34 253h-498c-22 -34.667 -45.333 -74.834 -70 -120.501
l-57 -104.5c-12 -21.333 -23.5 -45.166 -34.5 -71.499s-16.5 -43.833 -16.5 -52.5c0 -22 17.667 -39.667 53 -53s79.666 -21.666 132.999 -24.999l-15 -66h-545l15 66c17.333 1.33301 39.833 5.16602 67.5 11.499s50.834 14.833 69.501 25.5
c23.333 13.333 45.833 29.833 67.5 49.5s44.834 49.167 69.501 88.5l379.5 610l363.5 588h80l189 -1229c4 -24.667 10.667 -45.5 20 -62.5s23.333 -32.833 42 -47.5c13.333 -9.33301 31.333 -17.166 54 -23.499s42.667 -9.83301 60 -10.5l-15 -66h-580zM1298 1840
c-6.66699 -25.333 -16.6689 -51.333 -30.002 -78s-31.666 -53 -54.999 -79c-24 -26 -49.167 -46.833 -75.5 -62.5s-57.833 -23.5 -94.5 -23.5c-37.333 0 -70.166 5.5 -98.499 16.5s-53.166 22.5 -74.499 34.5c-23.333 13.333 -45.833 25.333 -67.5 36s-44.834 16 -69.501 16
c-34.667 0 -61.5 -12.167 -80.5 -36.5s-39.167 -57.5 -60.5 -99.5l-58 25c6.66699 21.333 18 47 34 77s33.333 56.333 52 79c20 24 44.333 44.5 73 61.5s58.667 25.5 90 25.5c35.333 0 67 -5.5 95 -16.5s53.333 -22.833 76 -35.5l65.5 -36c17.667 -10 38.5 -15 62.5 -15
c46 0 79.167 10.833 99.5 32.5s38.833 55.5 55.5 101.5z" />
    <glyph glyph-name="Adieresis" unicode="&#xc4;" horiz-adv-x="1374" 
d="M875 576l-89 554l-340 -554h429zM722 0l14.998 65.999c20.667 2 44.834 4.83301 72.501 8.5s49.167 7.83398 64.5 12.501c20.667 6.66699 36.167 13.667 46.5 21s15.5 18.666 15.5 33.999c0 5.33301 -4 38 -12 98l-34 253h-498c-22 -34.667 -45.333 -74.834 -70 -120.501
l-57 -104.5c-12 -21.333 -23.5 -45.166 -34.5 -71.499s-16.5 -43.833 -16.5 -52.5c0 -22 17.667 -39.667 53 -53s79.666 -21.666 132.999 -24.999l-15 -66h-545l15 66c17.333 1.33301 39.833 5.16602 67.5 11.499s50.834 14.833 69.501 25.5
c23.333 13.333 45.833 29.833 67.5 49.5s44.834 49.167 69.501 88.5l379.5 610l363.5 588h80l189 -1229c4 -24.667 10.667 -45.5 20 -62.5s23.333 -32.833 42 -47.5c13.333 -9.33301 31.333 -17.166 54 -23.499s42.667 -9.83301 60 -10.5l-15 -66h-580zM1255 1730
c0 -34 -11.5 -63 -34.5 -87s-50.833 -36 -83.5 -36s-60.5 12 -83.5 36s-34.5 53 -34.5 87s11.5 63 34.5 87s50.833 36 83.5 36s60.5 -12 83.5 -36s34.5 -53 34.5 -87zM804.998 1730c0 -34 -11.5 -63 -34.5 -87s-50.833 -36 -83.5 -36s-60.5 12 -83.5 36s-34.5 53 -34.5 87
s11.5 63 34.5 87s50.833 36 83.5 36s60.5 -12 83.5 -36s34.5 -53 34.5 -87z" />
    <glyph glyph-name="Aring" unicode="&#xc5;" horiz-adv-x="1374" 
d="M875 576l-89 554l-340 -554h429zM722 0l14.998 65.9971c20.667 2 44.834 4.83301 72.501 8.5s49.167 7.83398 64.5 12.501c20.667 6.66699 36.167 13.667 46.5 21s15.5 18.666 15.5 33.999c0 5.33301 -4 38 -12 98l-34 253h-498
c-22 -34.667 -45.333 -74.834 -70 -120.501l-57 -104.5c-12 -21.333 -23.5 -45.166 -34.5 -71.499s-16.5 -43.833 -16.5 -52.5c0 -22 17.667 -39.667 53 -53s79.666 -21.666 132.999 -24.999l-15 -66h-545l15 66c17.333 1.33301 39.833 5.16602 67.5 11.499
s50.834 14.833 69.501 25.5c23.333 13.333 45.833 29.833 67.5 49.5s44.834 49.167 69.501 88.5l375 602.5l358 580.5c-64 4 -113.667 21.667 -149 53s-53 74 -53 128c0 72.667 28.667 134.667 86 186s128.666 77 213.999 77c66.667 0 120.334 -17.167 161.001 -51.5
s61 -79.166 61 -134.499c0 -58.667 -20.333 -112.167 -61 -160.5s-96.667 -79.166 -168 -92.499l188 -1219c4 -24.667 10.667 -45.5 20 -62.5s23.333 -32.833 42 -47.5c13.333 -9.33301 31.333 -17.166 54 -23.499s42.667 -9.83301 60 -10.5l-15 -66h-580zM1053 1682
c0 34.667 -8.33301 64.502 -25 89.502s-43 37.5 -79 37.5c-48.667 0 -87.5 -20.333 -116.5 -61s-43.5 -87.334 -43.5 -140.001c0 -36.667 8.5 -66.834 25.5 -90.501s43.833 -35.5 80.5 -35.5c46.667 0 84.667 19 114 57s44 85.667 44 143z" />
    <glyph glyph-name="AE" unicode="&#xc6;" horiz-adv-x="1988" 
d="M2038 1419l-78.9971 -341.999h-75c-1.33301 23.333 -4.83301 49.666 -10.5 78.999s-14.167 56.666 -25.5 81.999s-26 47 -44 65s-40.667 29.333 -68 34c-20 2.66699 -44.333 4.66699 -73 6s-61 2 -97 2h-218l-131 -571h150c49.333 0 87.666 4.83301 114.999 14.5
s51.666 25.834 72.999 48.501c20 20 39.333 47.5 58 82.5s32 64.5 40 88.5h75l-128 -555h-74c0 7.33301 0.5 16.166 1.5 26.499s1.5 21.5 1.5 33.5c0 24.667 -1.66699 48.334 -5 71.001s-8 39.334 -14 50.001c-14 26 -34 43 -60 51s-60 12 -102 12h-150l-99 -433
c-3.33301 -16 -6.33301 -33.5 -9 -52.5s-4 -33.5 -4 -43.5c0 -40 14 -65.167 42 -75.5s81.667 -15.5 161 -15.5c104 0 177.667 3.66699 221 11s75.333 19.333 96 36c38 30.667 82.5 79.667 133.5 147s85.167 116.333 102.5 147h72l-123 -418h-1168l15 66
c20.667 1.33301 48 4.16602 82 8.49902s57 8.83301 69 13.5c23.333 8.66699 41.166 21.667 53.499 39s20.833 37.666 25.5 60.999l96 416h-474l-109 -134c-26.667 -34 -76 -101 -148 -201c-14 -18.667 -26.667 -40.834 -38 -66.501s-17 -43.5 -17 -53.5
c0 -25.333 12.333 -44.666 37 -57.999s62.334 -21.666 113.001 -24.999l-15 -66h-536l15 66c21.333 2.66699 44.666 7.5 69.999 14.5s48.333 15.833 69 26.5c24.667 12.667 49.834 30.5 75.501 53.5s51.5 50.833 77.5 83.5l429 533.5l436 553.5
c-16.667 7.33301 -42.334 12.5 -77.001 15.5s-65 5.16699 -91 6.5l16 66h1241zM1133 1336h-69l-508 -648h428z" />
    <glyph glyph-name="Ccedilla" unicode="&#xc7;" horiz-adv-x="1315" 
d="M580 -30c-62 5.33301 -120.998 20.498 -176.998 45.498s-105 58.5 -147 100.5c-48.667 49.333 -86.834 109 -114.501 179s-41.5 149 -41.5 237c0 126 21.333 243.667 64 353s101.334 207 176.001 293c72 82.667 158.5 149 259.5 199s206.5 75 316.5 75
c83.333 0 156.5 -9.66699 219.5 -29s114.833 -43.333 155.5 -72l56 68h80l-108 -506h-82v40c0 54.667 -4.33301 106.834 -13 156.501s-25.334 94.5 -50.001 134.5c-24 38.667 -56.833 69.5 -98.5 92.5s-94.834 34.5 -159.501 34.5c-82 0 -158.167 -21.833 -228.5 -65.5
s-131.166 -101.834 -182.499 -174.501c-50.667 -70.667 -91.334 -157.667 -122.001 -261s-46 -208.666 -46 -315.999c0 -142 34.833 -257.167 104.5 -345.5s163.167 -132.5 280.5 -132.5c98 0 188.167 29 270.5 87s149.5 135.667 201.5 233l72 -38
c-80.667 -138 -170.834 -236.667 -270.501 -296s-212.5 -90.666 -338.5 -93.999l-14 -67c68 0 119.333 -11.833 154 -35.5s52 -54.167 52 -91.5c0 -43.333 -12.5 -79.833 -37.5 -109.5s-57.5 -52.167 -97.5 -67.5c-37.333 -14.667 -81.166 -25.167 -131.499 -31.5
s-106.833 -9.5 -169.5 -9.5l15 72c28 0 59.333 0.5 94 1.5s63.667 4.5 87 10.5c27.333 6.66699 49 16.167 65 28.5s24 31.5 24 57.5c0 21.333 -11.5 37.833 -34.5 49.5s-62.833 17.5 -119.5 17.5z" />
    <glyph glyph-name="Egrave" unicode="&#xc8;" horiz-adv-x="1338" 
d="M1388 1419l-78.9961 -342h-75c-4 70.667 -18.833 130 -44.5 178s-60.167 75.333 -103.5 82c-20 2.66699 -44.333 4.66699 -73 6s-61 2 -97 2h-228l-131 -571h160c49.333 0 87.666 4.83301 114.999 14.5s51.666 25.834 72.999 48.501c20 20 39.333 47.5 58 82.5
s32 64.5 40 88.5h75l-128 -555h-74c0 7.33301 0.5 16.166 1.5 26.499s1.5 21.5 1.5 33.5c0 24.667 -1.66699 48.334 -5 71.001s-8 39.334 -14 50.001c-14 26 -34 43 -60 51s-60 12 -102 12h-160l-99 -433c-4 -16 -7.33301 -33.333 -10 -52s-4 -33.334 -4 -44.001
c0 -36.667 13.167 -61 39.5 -73s84.5 -18 174.5 -18c112 0 188 4 228 12s69.667 19.667 89 35c38 30.667 82.5 79.667 133.5 147s85.167 116.333 102.5 147h72l-123 -418h-1178l15 66c20.667 1.33301 48 4.16602 82 8.49902s57 8.83301 69 13.5
c23.333 8.66699 41.166 21.667 53.499 39s20.833 37.666 25.5 60.999l238 1030c1.33301 5.33301 2.5 11.333 3.5 18s1.5 13 1.5 19c0 13.333 -2.83301 25.333 -8.5 36s-15.834 19.667 -30.501 27c-16 8.66699 -38.667 16.334 -68 23.001s-52.333 10.667 -69 12l15 66h1098z
M1032 1546l-34 -39l-200.5 102.5l-130.5 66.5c-26 14 -46.333 28 -61 42s-22 33.667 -22 59c0 26 9 47.667 27 65s41 26 69 26c18 0 35.833 -6.33301 53.5 -19s36.167 -28.667 55.5 -48l95.5 -100z" />
    <glyph glyph-name="Eacute" unicode="&#xc9;" horiz-adv-x="1338" 
d="M1388 1419l-78.9961 -342h-75c-4 70.667 -18.833 130 -44.5 178s-60.167 75.333 -103.5 82c-20 2.66699 -44.333 4.66699 -73 6s-61 2 -97 2h-228l-131 -571h160c49.333 0 87.666 4.83301 114.999 14.5s51.666 25.834 72.999 48.501c20 20 39.333 47.5 58 82.5
s32 64.5 40 88.5h75l-128 -555h-74c0 7.33301 0.5 16.166 1.5 26.499s1.5 21.5 1.5 33.5c0 24.667 -1.66699 48.334 -5 71.001s-8 39.334 -14 50.001c-14 26 -34 43 -60 51s-60 12 -102 12h-160l-99 -433c-4 -16 -7.33301 -33.333 -10 -52s-4 -33.334 -4 -44.001
c0 -36.667 13.167 -61 39.5 -73s84.5 -18 174.5 -18c112 0 188 4 228 12s69.667 19.667 89 35c38 30.667 82.5 79.667 133.5 147s85.167 116.333 102.5 147h72l-123 -418h-1178l15 66c20.667 1.33301 48 4.16602 82 8.49902s57 8.83301 69 13.5
c23.333 8.66699 41.166 21.667 53.499 39s20.833 37.666 25.5 60.999l238 1030c1.33301 5.33301 2.5 11.333 3.5 18s1.5 13 1.5 19c0 13.333 -2.83301 25.333 -8.5 36s-15.834 19.667 -30.501 27c-16 8.66699 -38.667 16.334 -68 23.001s-52.333 10.667 -69 12l15 66h1098z
M1177 1796c0 -30 -9.33105 -54.166 -27.998 -72.499s-43.334 -34.833 -74.001 -49.5l-142 -65.5l-219 -101.5l-27 39l161 145.5l121 117.5c25.333 25.333 47.666 41.5 66.999 48.5s38.333 10.5 57 10.5c24 0 44 -6.83301 60 -20.5s24 -30.834 24 -51.501z" />
    <glyph glyph-name="Ecircumflex" unicode="&#xca;" horiz-adv-x="1338" 
d="M1388 1419l-78.9961 -342h-75c-4 70.667 -18.833 130 -44.5 178s-60.167 75.333 -103.5 82c-20 2.66699 -44.333 4.66699 -73 6s-61 2 -97 2h-228l-131 -571h160c49.333 0 87.666 4.83301 114.999 14.5s51.666 25.834 72.999 48.501c20 20 39.333 47.5 58 82.5
s32 64.5 40 88.5h75l-128 -555h-74c0 7.33301 0.5 16.166 1.5 26.499s1.5 21.5 1.5 33.5c0 24.667 -1.66699 48.334 -5 71.001s-8 39.334 -14 50.001c-14 26 -34 43 -60 51s-60 12 -102 12h-160l-99 -433c-4 -16 -7.33301 -33.333 -10 -52s-4 -33.334 -4 -44.001
c0 -36.667 13.167 -61 39.5 -73s84.5 -18 174.5 -18c112 0 188 4 228 12s69.667 19.667 89 35c38 30.667 82.5 79.667 133.5 147s85.167 116.333 102.5 147h72l-123 -418h-1178l15 66c20.667 1.33301 48 4.16602 82 8.49902s57 8.83301 69 13.5
c23.333 8.66699 41.166 21.667 53.499 39s20.833 37.666 25.5 60.999l238 1030c1.33301 5.33301 2.5 11.333 3.5 18s1.5 13 1.5 19c0 13.333 -2.83301 25.333 -8.5 36s-15.834 19.667 -30.501 27c-16 8.66699 -38.667 16.334 -68 23.001s-52.333 10.667 -69 12l15 66h1098z
M1209 1539l-49 -32l-234 212l-320 -212l-47 32l290 284c12.667 12 26.167 22.5 40.5 31.5s34.5 13.5 60.5 13.5c28 0 46.833 -4.5 56.5 -13.5s17.167 -18.167 22.5 -27.5z" />
    <glyph glyph-name="Edieresis" unicode="&#xcb;" horiz-adv-x="1338" 
d="M1388 1419l-78.9961 -342h-75c-4 70.667 -18.833 130 -44.5 178s-60.167 75.333 -103.5 82c-20 2.66699 -44.333 4.66699 -73 6s-61 2 -97 2h-228l-131 -571h160c49.333 0 87.666 4.83301 114.999 14.5s51.666 25.834 72.999 48.501c20 20 39.333 47.5 58 82.5
s32 64.5 40 88.5h75l-128 -555h-74c0 7.33301 0.5 16.166 1.5 26.499s1.5 21.5 1.5 33.5c0 24.667 -1.66699 48.334 -5 71.001s-8 39.334 -14 50.001c-14 26 -34 43 -60 51s-60 12 -102 12h-160l-99 -433c-4 -16 -7.33301 -33.333 -10 -52s-4 -33.334 -4 -44.001
c0 -36.667 13.167 -61 39.5 -73s84.5 -18 174.5 -18c112 0 188 4 228 12s69.667 19.667 89 35c38 30.667 82.5 79.667 133.5 147s85.167 116.333 102.5 147h72l-123 -418h-1178l15 66c20.667 1.33301 48 4.16602 82 8.49902s57 8.83301 69 13.5
c23.333 8.66699 41.166 21.667 53.499 39s20.833 37.666 25.5 60.999l238 1030c1.33301 5.33301 2.5 11.333 3.5 18s1.5 13 1.5 19c0 13.333 -2.83301 25.333 -8.5 36s-15.834 19.667 -30.501 27c-16 8.66699 -38.667 16.334 -68 23.001s-52.333 10.667 -69 12l15 66h1098z
M1226 1730c0 -34 -11.5 -63 -34.5 -87s-50.833 -36 -83.5 -36s-60.5 12 -83.5 36s-34.5 53 -34.5 87s11.5 63 34.5 87s50.833 36 83.5 36s60.5 -12 83.5 -36s34.5 -53 34.5 -87zM776.004 1730c0 -34 -11.5 -63 -34.5 -87s-50.833 -36 -83.5 -36s-60.5 12 -83.5 36
s-34.5 53 -34.5 87s11.5 63 34.5 87s50.833 36 83.5 36s60.5 -12 83.5 -36s34.5 -53 34.5 -87z" />
    <glyph glyph-name="Igrave" unicode="&#xcc;" horiz-adv-x="798" 
d="M922 1419l-15.001 -65.999c-20.667 -0.666992 -47.667 -3.66699 -81 -9s-58 -10.333 -74 -15c-28 -8.66699 -48 -22 -60 -40s-20.667 -37.667 -26 -59l-240 -1037c-1.33301 -4.66699 -2.33301 -10 -3 -16s-1 -11.333 -1 -16c0 -15.333 3.33301 -28.333 10 -39
s18.667 -20 36 -28c10 -4.66699 32 -10.167 66 -16.5s59.333 -10.166 76 -11.499l-15 -66h-639l15 66l80 6c34.667 2.66699 59.334 6.66699 74.001 12c26 9.33301 45.667 22.166 59 38.499s22.333 36.166 27 59.499l239 1038c1.33301 6 2.33301 12 3 18s1 12 1 18
c0 13.333 -2.83301 25 -8.5 35s-17.5 19 -35.5 27s-42.5 15.5 -73.5 22.5s-53.833 11.167 -68.5 12.5l15 66h639zM841.999 1546l-34 -39l-200.5 102.5l-130.5 66.5c-26 14 -46.333 28 -61 42s-22 33.667 -22 59c0 26 9 47.667 27 65s41 26 69 26
c18 0 35.833 -6.33301 53.5 -19s36.167 -28.667 55.5 -48l95.5 -100z" />
    <glyph glyph-name="Iacute" unicode="&#xcd;" horiz-adv-x="798" 
d="M922 1419l-15.001 -65.999c-20.667 -0.666992 -47.667 -3.66699 -81 -9s-58 -10.333 -74 -15c-28 -8.66699 -48 -22 -60 -40s-20.667 -37.667 -26 -59l-240 -1037c-1.33301 -4.66699 -2.33301 -10 -3 -16s-1 -11.333 -1 -16c0 -15.333 3.33301 -28.333 10 -39
s18.667 -20 36 -28c10 -4.66699 32 -10.167 66 -16.5s59.333 -10.166 76 -11.499l-15 -66h-639l15 66l80 6c34.667 2.66699 59.334 6.66699 74.001 12c26 9.33301 45.667 22.166 59 38.499s22.333 36.166 27 59.499l239 1038c1.33301 6 2.33301 12 3 18s1 12 1 18
c0 13.333 -2.83301 25 -8.5 35s-17.5 19 -35.5 27s-42.5 15.5 -73.5 22.5s-53.833 11.167 -68.5 12.5l15 66h639zM916.999 1796c0 -30 -9.33105 -54.166 -27.998 -72.499s-43.334 -34.833 -74.001 -49.5l-142 -65.5l-219 -101.5l-27 39l161 145.5l121 117.5
c25.333 25.333 47.666 41.5 66.999 48.5s38.333 10.5 57 10.5c24 0 44 -6.83301 60 -20.5s24 -30.834 24 -51.501z" />
    <glyph glyph-name="Icircumflex" unicode="&#xce;" horiz-adv-x="798" 
d="M922 1419l-15.001 -65.999c-20.667 -0.666992 -47.667 -3.66699 -81 -9s-58 -10.333 -74 -15c-28 -8.66699 -48 -22 -60 -40s-20.667 -37.667 -26 -59l-240 -1037c-1.33301 -4.66699 -2.33301 -10 -3 -16s-1 -11.333 -1 -16c0 -15.333 3.33301 -28.333 10 -39
s18.667 -20 36 -28c10 -4.66699 32 -10.167 66 -16.5s59.333 -10.166 76 -11.499l-15 -66h-639l15 66l80 6c34.667 2.66699 59.334 6.66699 74.001 12c26 9.33301 45.667 22.166 59 38.499s22.333 36.166 27 59.499l239 1038c1.33301 6 2.33301 12 3 18s1 12 1 18
c0 13.333 -2.83301 25 -8.5 35s-17.5 19 -35.5 27s-42.5 15.5 -73.5 22.5s-53.833 11.167 -68.5 12.5l15 66h639zM944.999 1539l-49 -32l-234 212l-320 -212l-47 32l290 284c12.667 12 26.167 22.5 40.5 31.5s34.5 13.5 60.5 13.5c28 0 46.833 -4.5 56.5 -13.5
s17.167 -18.167 22.5 -27.5z" />
    <glyph glyph-name="Idieresis" unicode="&#xcf;" horiz-adv-x="798" 
d="M922 1419l-15.001 -65.999c-20.667 -0.666992 -47.667 -3.66699 -81 -9s-58 -10.333 -74 -15c-28 -8.66699 -48 -22 -60 -40s-20.667 -37.667 -26 -59l-240 -1037c-1.33301 -4.66699 -2.33301 -10 -3 -16s-1 -11.333 -1 -16c0 -15.333 3.33301 -28.333 10 -39
s18.667 -20 36 -28c10 -4.66699 32 -10.167 66 -16.5s59.333 -10.166 76 -11.499l-15 -66h-639l15 66l80 6c34.667 2.66699 59.334 6.66699 74.001 12c26 9.33301 45.667 22.166 59 38.499s22.333 36.166 27 59.499l239 1038c1.33301 6 2.33301 12 3 18s1 12 1 18
c0 13.333 -2.83301 25 -8.5 35s-17.5 19 -35.5 27s-42.5 15.5 -73.5 22.5s-53.833 11.167 -68.5 12.5l15 66h639zM977.999 1730c0 -34 -11.5 -63 -34.5 -87s-50.833 -36 -83.5 -36s-60.5 12 -83.5 36s-34.5 53 -34.5 87s11.5 63 34.5 87s50.833 36 83.5 36
s60.5 -12 83.5 -36s34.5 -53 34.5 -87zM547.999 1730c0 -34 -11.5 -63 -34.5 -87s-50.833 -36 -83.5 -36s-60.5 12 -83.5 36s-34.5 53 -34.5 87s11.5 63 34.5 87s50.833 36 83.5 36s60.5 -12 83.5 -36s34.5 -53 34.5 -87z" />
    <glyph glyph-name="Eth" unicode="&#xd0;" horiz-adv-x="1534" 
d="M1515 872c0 -135.333 -26.335 -258.168 -79.002 -368.501s-121.667 -201.833 -207 -274.5c-88.667 -75.333 -187.5 -132.333 -296.5 -171s-223.167 -58 -342.5 -58h-619l15 66c17.333 0 41.833 1.66699 73.5 5s54.167 7.66602 67.5 12.999c24 9.33301 42 22.5 54 39.5
s20.667 37.167 26 60.5l120 519h-186l22 94h186l94 408c2 8 3.83301 16.833 5.5 26.5s2.5 17.5 2.5 23.5c0 14.667 -2.5 27.5 -7.5 38.5s-15.167 20.167 -30.5 27.5c-17.333 8 -38.666 14.833 -63.999 20.5s-44.666 9.5 -57.999 11.5l15 66h601c60 0 125.333 -8.5 196 -25.5
s136.667 -46.167 198 -87.5c64.667 -43.333 116.5 -101.166 155.5 -173.499s58.5 -159.166 58.5 -260.499zM1280 870.998c0 149.333 -40 265.334 -120 348.001s-186.333 124 -319 124c-27.333 0 -55.666 -0.5 -84.999 -1.5s-52.333 -1.83301 -69 -2.5l-125 -542h303l-22 -94
h-303l-107 -465c-2 -9.33301 -3.66699 -18.333 -5 -27s-2 -17 -2 -25c0 -40 16.667 -68.167 50 -84.5s88 -24.5 164 -24.5c99.333 0 189.833 22.667 271.5 68s149.5 105.666 203.5 180.999c55.333 78 96.666 163 123.999 255s41 188.667 41 290z" />
    <glyph glyph-name="Ntilde" unicode="&#xd1;" horiz-adv-x="1571" 
d="M1759 1419l-16 -66c-18 -0.666992 -47.667 -6 -89 -16s-71.333 -20.333 -90 -31c-28.667 -16.667 -52.167 -48.5 -70.5 -95.5s-36.166 -107.167 -53.499 -180.5l-241 -1044h-90l-582 1198l-178 -774c-8 -34.667 -14.667 -69.667 -20 -105s-8 -64 -8 -86
c0 -23.333 2.33301 -42.166 7 -56.499s11 -26.166 19 -35.499c11.333 -14 39.666 -27.333 84.999 -40s75.333 -19.667 90 -21l-15 -66h-582l15 66c22 2 54.333 8.5 97 19.5s71 21.5 85 31.5c26.667 18 49.334 47.167 68.001 87.5s38 105.166 58 194.499l159 688
c4.66699 22 8 40.833 10 56.5s3 30.167 3 43.5c0 16 -1.83301 31.167 -5.5 45.5s-12.167 29.5 -25.5 45.5c-23.333 26.667 -51.833 45.167 -85.5 55.5s-63.834 16.833 -90.501 19.5l16 66h407l540 -1109l163 707c8 35.333 14.667 69.833 20 103.5s8 62.5 8 86.5
c0 22 -2.16699 40.5 -6.5 55.5s-10.833 26.167 -19.5 33.5c-16 14 -43 26.167 -81 36.5s-69.333 17.166 -94 20.499l16 66h577zM1404 1840c-6.66699 -25.333 -16.6689 -51.333 -30.002 -78s-31.666 -53 -54.999 -79c-24 -26 -49.167 -46.833 -75.5 -62.5
s-57.833 -23.5 -94.5 -23.5c-37.333 0 -70.166 5.5 -98.499 16.5s-53.166 22.5 -74.499 34.5c-23.333 13.333 -45.833 25.333 -67.5 36s-44.834 16 -69.501 16c-34.667 0 -61.5 -12.167 -80.5 -36.5s-39.167 -57.5 -60.5 -99.5l-58 25c6.66699 21.333 18 47 34 77
s33.333 56.333 52 79c20 24 44.333 44.5 73 61.5s58.667 25.5 90 25.5c35.333 0 67 -5.5 95 -16.5s53.333 -22.833 76 -35.5l65.5 -36c17.667 -10 38.5 -15 62.5 -15c46 0 79.167 10.833 99.5 32.5s38.833 55.5 55.5 101.5z" />
    <glyph glyph-name="Ograve" unicode="&#xd2;" horiz-adv-x="1496" 
d="M1477 873c0 -126.667 -23.335 -245.833 -70.002 -357.5s-107.667 -207.167 -183 -286.5c-77.333 -81.333 -165.5 -145.5 -264.5 -192.5s-201.5 -70.5 -307.5 -70.5c-165.333 0 -298.666 53.667 -399.999 161s-152 245 -152 413c0 129.333 23.333 249.5 70 360.5
s107.334 206.833 182.001 287.5c75.333 82 163.166 146.667 263.499 194s203.5 71 309.5 71c162.667 0 295.334 -52.5 398.001 -157.5s154 -245.833 154 -422.5zM1095 339.001c47.333 82.667 83.666 176 108.999 280s38 208 38 312c0 133.333 -28.333 239.666 -85 318.999
s-140 119 -250 119c-85.333 0 -164.666 -25.333 -237.999 -76s-137.333 -125 -192 -223c-47.333 -86 -82.833 -180.667 -106.5 -284s-35.5 -200.666 -35.5 -291.999c0 -140 28.833 -249 86.5 -327s140.167 -117 247.5 -117c91.333 0 173.333 27.333 246 82
s132.667 123.667 180 207zM1142 1546l-34 -39l-200.5 102.5l-130.5 66.5c-26 14 -46.333 28 -61 42s-22 33.667 -22 59c0 26 9 47.667 27 65s41 26 69 26c18 0 35.833 -6.33301 53.5 -19s36.167 -28.667 55.5 -48l95.5 -100z" />
    <glyph glyph-name="Oacute" unicode="&#xd3;" horiz-adv-x="1524" 
d="M1477 873c0 -126.667 -23.335 -245.833 -70.002 -357.5s-107.667 -207.167 -183 -286.5c-77.333 -81.333 -165.5 -145.5 -264.5 -192.5s-201.5 -70.5 -307.5 -70.5c-165.333 0 -298.666 53.667 -399.999 161s-152 245 -152 413c0 129.333 23.333 249.5 70 360.5
s107.334 206.833 182.001 287.5c75.333 82 163.166 146.667 263.499 194s203.5 71 309.5 71c162.667 0 295.334 -52.5 398.001 -157.5s154 -245.833 154 -422.5zM1095 339.001c47.333 82.667 83.666 176 108.999 280s38 208 38 312c0 133.333 -28.333 239.666 -85 318.999
s-140 119 -250 119c-85.333 0 -164.666 -25.333 -237.999 -76s-137.333 -125 -192 -223c-47.333 -86 -82.833 -180.667 -106.5 -284s-35.5 -200.666 -35.5 -291.999c0 -140 28.833 -249 86.5 -327s140.167 -117 247.5 -117c91.333 0 173.333 27.333 246 82
s132.667 123.667 180 207zM1197 1796c0 -30 -9.33105 -54.166 -27.998 -72.499s-43.334 -34.833 -74.001 -49.5l-142 -65.5l-219 -101.5l-27 39l161 145.5l121 117.5c25.333 25.333 47.666 41.5 66.999 48.5s38.333 10.5 57 10.5c24 0 44 -6.83301 60 -20.5
s24 -30.834 24 -51.501z" />
    <glyph glyph-name="Ocircumflex" unicode="&#xd4;" horiz-adv-x="1496" 
d="M1477 873c0 -126.667 -23.335 -245.833 -70.002 -357.5s-107.667 -207.167 -183 -286.5c-77.333 -81.333 -165.5 -145.5 -264.5 -192.5s-201.5 -70.5 -307.5 -70.5c-165.333 0 -298.666 53.667 -399.999 161s-152 245 -152 413c0 129.333 23.333 249.5 70 360.5
s107.334 206.833 182.001 287.5c75.333 82 163.166 146.667 263.499 194s203.5 71 309.5 71c162.667 0 295.334 -52.5 398.001 -157.5s154 -245.833 154 -422.5zM1095 339.001c47.333 82.667 83.666 176 108.999 280s38 208 38 312c0 133.333 -28.333 239.666 -85 318.999
s-140 119 -250 119c-85.333 0 -164.666 -25.333 -237.999 -76s-137.333 -125 -192 -223c-47.333 -86 -82.833 -180.667 -106.5 -284s-35.5 -200.666 -35.5 -291.999c0 -140 28.833 -249 86.5 -327s140.167 -117 247.5 -117c91.333 0 173.333 27.333 246 82
s132.667 123.667 180 207zM1249 1539l-49 -32l-234 212l-320 -212l-47 32l290 284c12.667 12 26.167 22.5 40.5 31.5s34.5 13.5 60.5 13.5c28 0 46.833 -4.5 56.5 -13.5s17.167 -18.167 22.5 -27.5z" />
    <glyph glyph-name="Otilde" unicode="&#xd5;" horiz-adv-x="1496" 
d="M1477 873c0 -126.667 -23.335 -245.833 -70.002 -357.5s-107.667 -207.167 -183 -286.5c-77.333 -81.333 -165.5 -145.5 -264.5 -192.5s-201.5 -70.5 -307.5 -70.5c-165.333 0 -298.666 53.667 -399.999 161s-152 245 -152 413c0 129.333 23.333 249.5 70 360.5
s107.334 206.833 182.001 287.5c75.333 82 163.166 146.667 263.499 194s203.5 71 309.5 71c162.667 0 295.334 -52.5 398.001 -157.5s154 -245.833 154 -422.5zM1095 339.001c47.333 82.667 83.666 176 108.999 280s38 208 38 312c0 133.333 -28.333 239.666 -85 318.999
s-140 119 -250 119c-85.333 0 -164.666 -25.333 -237.999 -76s-137.333 -125 -192 -223c-47.333 -86 -82.833 -180.667 -106.5 -284s-35.5 -200.666 -35.5 -291.999c0 -140 28.833 -249 86.5 -327s140.167 -117 247.5 -117c91.333 0 173.333 27.333 246 82
s132.667 123.667 180 207zM1344 1840c-6.66699 -25.333 -16.6689 -51.333 -30.002 -78s-31.666 -53 -54.999 -79c-24 -26 -49.167 -46.833 -75.5 -62.5s-57.833 -23.5 -94.5 -23.5c-37.333 0 -70.166 5.5 -98.499 16.5s-53.166 22.5 -74.499 34.5
c-23.333 13.333 -45.833 25.333 -67.5 36s-44.834 16 -69.501 16c-34.667 0 -61.5 -12.167 -80.5 -36.5s-39.167 -57.5 -60.5 -99.5l-58 25c6.66699 21.333 18 47 34 77s33.333 56.333 52 79c20 24 44.333 44.5 73 61.5s58.667 25.5 90 25.5c35.333 0 67 -5.5 95 -16.5
s53.333 -22.833 76 -35.5l65.5 -36c17.667 -10 38.5 -15 62.5 -15c46 0 79.167 10.833 99.5 32.5s38.833 55.5 55.5 101.5z" />
    <glyph glyph-name="Odieresis" unicode="&#xd6;" horiz-adv-x="1524" 
d="M1477 873c0 -126.667 -23.335 -245.833 -70.002 -357.5s-107.667 -207.167 -183 -286.5c-77.333 -81.333 -165.5 -145.5 -264.5 -192.5s-201.5 -70.5 -307.5 -70.5c-165.333 0 -298.666 53.667 -399.999 161s-152 245 -152 413c0 129.333 23.333 249.5 70 360.5
s107.334 206.833 182.001 287.5c75.333 82 163.166 146.667 263.499 194s203.5 71 309.5 71c162.667 0 295.334 -52.5 398.001 -157.5s154 -245.833 154 -422.5zM1095 339.001c47.333 82.667 83.666 176 108.999 280s38 208 38 312c0 133.333 -28.333 239.666 -85 318.999
s-140 119 -250 119c-85.333 0 -164.666 -25.333 -237.999 -76s-137.333 -125 -192 -223c-47.333 -86 -82.833 -180.667 -106.5 -284s-35.5 -200.666 -35.5 -291.999c0 -140 28.833 -249 86.5 -327s140.167 -117 247.5 -117c91.333 0 173.333 27.333 246 82
s132.667 123.667 180 207zM1299 1730c0 -34 -11.5 -63 -34.5 -87s-50.833 -36 -83.5 -36s-60.5 12 -83.5 36s-34.5 53 -34.5 87s11.5 63 34.5 87s50.833 36 83.5 36s60.5 -12 83.5 -36s34.5 -53 34.5 -87zM848.998 1730c0 -34 -11.5 -63 -34.5 -87s-50.833 -36 -83.5 -36
s-60.5 12 -83.5 36s-34.5 53 -34.5 87s11.5 63 34.5 87s50.833 36 83.5 36s60.5 -12 83.5 -36s34.5 -53 34.5 -87z" />
    <glyph glyph-name="multiply" unicode="&#xd7;" horiz-adv-x="1317" 
d="M1133 199l-89 -89l-361 363l-362 -364l-88 89l364 362l-364 361l89 88l361 -362l362 363l88 -88l-364 -362z" />
    <glyph glyph-name="Oslash" unicode="&#xd8;" horiz-adv-x="1524" 
d="M1477 873c0 -126.667 -23.335 -245.833 -70.002 -357.5s-107.667 -207.167 -183 -286.5c-77.333 -81.333 -165.5 -145.5 -264.5 -192.5s-201.5 -70.5 -307.5 -70.5c-84 0 -160.667 14.833 -230 44.5s-128 70.834 -176 123.501l-170 -166l-50 51l176 171
c-33.333 48 -58.666 101.833 -75.999 161.5s-26 122.5 -26 188.5c0 129.333 23.333 249.5 70 360.5s107.334 206.833 182.001 287.5c75.333 82 163.166 146.667 263.499 194s203.5 71 309.5 71c80.667 0 154.834 -13.833 222.501 -41.5s126.5 -67.834 176.5 -120.501
l139 136l54 -50l-147 -143c34.667 -48.667 61.167 -103.5 79.5 -164.5s27.5 -126.5 27.5 -196.5zM1202 1172c-26 64 -63.833 113 -113.5 147s-110.167 51 -181.5 51c-82 0 -159.833 -24 -233.5 -72s-139.5 -123.333 -197.5 -226c-48 -86 -83.833 -181 -107.5 -285
s-35.5 -201.667 -35.5 -293c0 -33.333 1 -61.833 3 -85.5s5.66699 -49.5 11 -77.5zM1096 336.001c47.333 82.667 83.833 176.169 109.5 280.502s38.5 209.166 38.5 314.499c0 25.333 -1.33301 54 -4 86s-6.66699 58.667 -12 80l-857 -841
c24 -64.667 60.667 -115.334 110 -152.001s112 -55 188 -55c91.333 0 173.5 27.167 246.5 81.5s133.167 122.833 180.5 205.5z" />
    <glyph glyph-name="Ugrave" unicode="&#xd9;" horiz-adv-x="1549" 
d="M659 -34c-140 0 -249.498 29.6689 -328.498 89.002s-118.5 138.333 -118.5 237c0 14 0.833008 27.167 2.5 39.5s4.16699 26.5 7.5 42.5l195 844c1.33301 5.33301 2.33301 11 3 17s1 11.667 1 17c0 13.333 -3 25.833 -9 37.5s-15.667 21.834 -29 30.501
c-14.667 9.33301 -34.334 16.666 -59.001 21.999s-45.334 9 -62.001 11l16 66h590l-16 -66c-18.667 -0.666992 -42.667 -3.66699 -72 -9s-51.333 -10.333 -66 -15c-26 -8.66699 -44.667 -22.334 -56 -41.001s-19.666 -38.667 -24.999 -60l-182 -789
c-4 -17.333 -7.5 -36.666 -10.5 -57.999s-4.5 -42 -4.5 -62c0 -34.667 3.66699 -64.834 11 -90.501s23.333 -51.5 48 -77.5c20.667 -22.667 49.5 -41.167 86.5 -55.5s83.5 -21.5 139.5 -21.5c76 0 141 11.833 195 35.5s99 53.167 135 88.5c34 34 61.833 71.667 83.5 113
s36.834 81 45.501 119c24 96 46.333 189.5 67 280.5l66 298.5c11.333 53.333 19.166 96.666 23.499 129.999s6.5 60.666 6.5 81.999c0 19.333 -2 34.833 -6 46.5s-11 21.834 -21 30.501c-19.333 16.667 -48.333 29.5 -87 38.5s-68 14.5 -88 16.5l16 66h580l-16 -66
c-18 -0.666992 -46.333 -4.83398 -85 -12.501s-70 -18.5 -94 -32.5c-27.333 -16 -51.5 -51.167 -72.5 -105.5s-38.167 -111.166 -51.5 -170.499l-63.5 -288.5c-21.667 -97 -46.5 -202.167 -74.5 -315.5c-23.333 -92.667 -58.5 -169.167 -105.5 -229.5
s-99.833 -107.5 -158.5 -141.5c-56.667 -32.667 -115.334 -56 -176.001 -70s-121 -21 -181 -21zM1181 1546l-34 -39l-200.5 102.5l-130.5 66.5c-26 14 -46.333 28 -61 42s-22 33.667 -22 59c0 26 9 47.667 27 65s41 26 69 26c18 0 35.833 -6.33301 53.5 -19
s36.167 -28.667 55.5 -48l95.5 -100z" />
    <glyph glyph-name="Uacute" unicode="&#xda;" horiz-adv-x="1549" 
d="M659 -34c-140 0 -249.498 29.6689 -328.498 89.002s-118.5 138.333 -118.5 237c0 14 0.833008 27.167 2.5 39.5s4.16699 26.5 7.5 42.5l195 844c1.33301 5.33301 2.33301 11 3 17s1 11.667 1 17c0 13.333 -3 25.833 -9 37.5s-15.667 21.834 -29 30.501
c-14.667 9.33301 -34.334 16.666 -59.001 21.999s-45.334 9 -62.001 11l16 66h590l-16 -66c-18.667 -0.666992 -42.667 -3.66699 -72 -9s-51.333 -10.333 -66 -15c-26 -8.66699 -44.667 -22.334 -56 -41.001s-19.666 -38.667 -24.999 -60l-182 -789
c-4 -17.333 -7.5 -36.666 -10.5 -57.999s-4.5 -42 -4.5 -62c0 -34.667 3.66699 -64.834 11 -90.501s23.333 -51.5 48 -77.5c20.667 -22.667 49.5 -41.167 86.5 -55.5s83.5 -21.5 139.5 -21.5c76 0 141 11.833 195 35.5s99 53.167 135 88.5c34 34 61.833 71.667 83.5 113
s36.834 81 45.501 119c24 96 46.333 189.5 67 280.5l66 298.5c11.333 53.333 19.166 96.666 23.499 129.999s6.5 60.666 6.5 81.999c0 19.333 -2 34.833 -6 46.5s-11 21.834 -21 30.501c-19.333 16.667 -48.333 29.5 -87 38.5s-68 14.5 -88 16.5l16 66h580l-16 -66
c-18 -0.666992 -46.333 -4.83398 -85 -12.501s-70 -18.5 -94 -32.5c-27.333 -16 -51.5 -51.167 -72.5 -105.5s-38.167 -111.166 -51.5 -170.499l-63.5 -288.5c-21.667 -97 -46.5 -202.167 -74.5 -315.5c-23.333 -92.667 -58.5 -169.167 -105.5 -229.5
s-99.833 -107.5 -158.5 -141.5c-56.667 -32.667 -115.334 -56 -176.001 -70s-121 -21 -181 -21zM1297 1796c0 -30 -9.33105 -54.166 -27.998 -72.499s-43.334 -34.833 -74.001 -49.5l-142 -65.5l-219 -101.5l-27 39l161 145.5l121 117.5
c25.333 25.333 47.666 41.5 66.999 48.5s38.333 10.5 57 10.5c24 0 44 -6.83301 60 -20.5s24 -30.834 24 -51.501z" />
    <glyph glyph-name="Ucircumflex" unicode="&#xdb;" horiz-adv-x="1549" 
d="M659 -34c-140 0 -249.498 29.6689 -328.498 89.002s-118.5 138.333 -118.5 237c0 14 0.833008 27.167 2.5 39.5s4.16699 26.5 7.5 42.5l195 844c1.33301 5.33301 2.33301 11 3 17s1 11.667 1 17c0 13.333 -3 25.833 -9 37.5s-15.667 21.834 -29 30.501
c-14.667 9.33301 -34.334 16.666 -59.001 21.999s-45.334 9 -62.001 11l16 66h590l-16 -66c-18.667 -0.666992 -42.667 -3.66699 -72 -9s-51.333 -10.333 -66 -15c-26 -8.66699 -44.667 -22.334 -56 -41.001s-19.666 -38.667 -24.999 -60l-182 -789
c-4 -17.333 -7.5 -36.666 -10.5 -57.999s-4.5 -42 -4.5 -62c0 -34.667 3.66699 -64.834 11 -90.501s23.333 -51.5 48 -77.5c20.667 -22.667 49.5 -41.167 86.5 -55.5s83.5 -21.5 139.5 -21.5c76 0 141 11.833 195 35.5s99 53.167 135 88.5c34 34 61.833 71.667 83.5 113
s36.834 81 45.501 119c24 96 46.333 189.5 67 280.5l66 298.5c11.333 53.333 19.166 96.666 23.499 129.999s6.5 60.666 6.5 81.999c0 19.333 -2 34.833 -6 46.5s-11 21.834 -21 30.501c-19.333 16.667 -48.333 29.5 -87 38.5s-68 14.5 -88 16.5l16 66h580l-16 -66
c-18 -0.666992 -46.333 -4.83398 -85 -12.501s-70 -18.5 -94 -32.5c-27.333 -16 -51.5 -51.167 -72.5 -105.5s-38.167 -111.166 -51.5 -170.499l-63.5 -288.5c-21.667 -97 -46.5 -202.167 -74.5 -315.5c-23.333 -92.667 -58.5 -169.167 -105.5 -229.5
s-99.833 -107.5 -158.5 -141.5c-56.667 -32.667 -115.334 -56 -176.001 -70s-121 -21 -181 -21zM1338 1539l-49 -32l-234 212l-320 -212l-47 32l290 284c12.667 12 26.167 22.5 40.5 31.5s34.5 13.5 60.5 13.5c28 0 46.833 -4.5 56.5 -13.5s17.167 -18.167 22.5 -27.5z" />
    <glyph glyph-name="Udieresis" unicode="&#xdc;" horiz-adv-x="1549" 
d="M659 -34c-140 0 -249.498 29.6689 -328.498 89.002s-118.5 138.333 -118.5 237c0 14 0.833008 27.167 2.5 39.5s4.16699 26.5 7.5 42.5l195 844c1.33301 5.33301 2.33301 11 3 17s1 11.667 1 17c0 13.333 -3 25.833 -9 37.5s-15.667 21.834 -29 30.501
c-14.667 9.33301 -34.334 16.666 -59.001 21.999s-45.334 9 -62.001 11l16 66h590l-16 -66c-18.667 -0.666992 -42.667 -3.66699 -72 -9s-51.333 -10.333 -66 -15c-26 -8.66699 -44.667 -22.334 -56 -41.001s-19.666 -38.667 -24.999 -60l-182 -789
c-4 -17.333 -7.5 -36.666 -10.5 -57.999s-4.5 -42 -4.5 -62c0 -34.667 3.66699 -64.834 11 -90.501s23.333 -51.5 48 -77.5c20.667 -22.667 49.5 -41.167 86.5 -55.5s83.5 -21.5 139.5 -21.5c76 0 141 11.833 195 35.5s99 53.167 135 88.5c34 34 61.833 71.667 83.5 113
s36.834 81 45.501 119c24 96 46.333 189.5 67 280.5l66 298.5c11.333 53.333 19.166 96.666 23.499 129.999s6.5 60.666 6.5 81.999c0 19.333 -2 34.833 -6 46.5s-11 21.834 -21 30.501c-19.333 16.667 -48.333 29.5 -87 38.5s-68 14.5 -88 16.5l16 66h580l-16 -66
c-18 -0.666992 -46.333 -4.83398 -85 -12.501s-70 -18.5 -94 -32.5c-27.333 -16 -51.5 -51.167 -72.5 -105.5s-38.167 -111.166 -51.5 -170.499l-63.5 -288.5c-21.667 -97 -46.5 -202.167 -74.5 -315.5c-23.333 -92.667 -58.5 -169.167 -105.5 -229.5
s-99.833 -107.5 -158.5 -141.5c-56.667 -32.667 -115.334 -56 -176.001 -70s-121 -21 -181 -21zM1387 1730c0 -34 -11.5 -63 -34.5 -87s-50.833 -36 -83.5 -36s-60.5 12 -83.5 36s-34.5 53 -34.5 87s11.5 63 34.5 87s50.833 36 83.5 36s60.5 -12 83.5 -36s34.5 -53 34.5 -87
zM937.002 1730c0 -34 -11.5 -63 -34.5 -87s-50.833 -36 -83.5 -36s-60.5 12 -83.5 36s-34.5 53 -34.5 87s11.5 63 34.5 87s50.833 36 83.5 36s60.5 -12 83.5 -36s34.5 -53 34.5 -87z" />
    <glyph glyph-name="Yacute" unicode="&#xdd;" horiz-adv-x="1260" 
d="M1517 1419l-15.998 -65.9951c-12 -0.666992 -30.667 -4.83398 -56 -12.501s-45.333 -16.167 -60 -25.5c-29.333 -15.333 -49.833 -27.5 -61.5 -36.5s-34.834 -31.833 -69.501 -68.5c-63.333 -66.667 -130.666 -144.667 -201.999 -234l-224 -280
c-34.667 -42.667 -58.834 -77.167 -72.501 -103.5s-26.5 -64.166 -38.5 -113.499l-63 -276c-1.33301 -5.33301 -2.33301 -11.333 -3 -18s-1 -12.334 -1 -17.001c0 -16.667 3 -30.667 9 -42s17.333 -21 34 -29c14.667 -6.66699 39.167 -13.334 73.5 -20.001
s61.5 -10.334 81.5 -11.001l-15 -66h-664l15 66c19.333 1.33301 47.666 3.66602 84.999 6.99902s64.666 8.33301 81.999 15c26.667 10 46.5 23.833 59.5 41.5s22.167 38.834 27.5 63.501l72 311l6 30c2 10 3 16 3 18c0 16 -3 36.833 -9 62.5s-13.333 52.834 -22 81.501
l-72.5 247c-25.667 85.333 -51.167 165.333 -76.5 240c-12.667 36.667 -25.5 65.167 -38.5 85.5s-28.833 37.5 -47.5 51.5c-13.333 10 -30.5 17.667 -51.5 23s-40.5 8.66602 -58.5 9.99902l16 66h582l-16 -66c-15.333 -0.666992 -35 -1.66699 -59 -3
s-45.667 -3.33301 -65 -6c-18.667 -2.66699 -35.5 -7.83398 -50.5 -15.501s-22.5 -17.5 -22.5 -29.5c0 -12.667 4.33301 -34.5 13 -65.5s22.334 -77.167 41.001 -138.5l56.5 -179.5l72.5 -226.5l260.5 321.5c76.333 96.333 127.833 163.166 154.5 200.499
c20.667 28.667 33 47.167 37 55.5s6 15.5 6 21.5c0 22.667 -16.333 38.667 -49 48s-73.667 15 -123 17l16 66h504zM1193 1796c0 -30 -9.33105 -54.166 -27.998 -72.499s-43.334 -34.833 -74.001 -49.5l-142 -65.5l-219 -101.5l-27 39l161 145.5l121 117.5
c25.333 25.333 47.666 41.5 66.999 48.5s38.333 10.5 57 10.5c24 0 44 -6.83301 60 -20.5s24 -30.834 24 -51.501z" />
    <glyph glyph-name="Thorn" unicode="&#xde;" horiz-adv-x="1258" 
d="M1249 831c0 -82.667 -18.168 -155.998 -54.501 -219.998s-83.5 -117 -141.5 -159c-60.667 -43.333 -126.167 -75.666 -196.5 -96.999s-143.5 -32 -219.5 -32h-186l-31 -135c-1.33301 -6 -2.33301 -12.5 -3 -19.5s-1 -12.833 -1 -17.5c0 -14.667 2.5 -27.5 7.5 -38.5
s15.5 -19.833 31.5 -26.5c10 -4.66699 29.167 -9 57.5 -13s55.833 -6.33301 82.5 -7l-15 -66h-606l15 66c16.667 1.33301 40.334 3.66602 71.001 6.99902s53 7.66602 67 12.999c24 9.33301 42 22.333 54 39s20.667 37.667 26 63l238 1032c1.33301 5.33301 2.5 11.333 3.5 18
s1.5 13 1.5 19c0 14 -2.5 25.667 -7.5 35s-15.5 18 -31.5 26s-36.167 15.167 -60.5 21.5s-46.5 10.833 -66.5 13.5l15 66h597l-15 -66c-16 -0.666992 -37.833 -3.16699 -65.5 -7.5s-52.5 -9.83301 -74.5 -16.5c-26 -8.66699 -44.333 -21.334 -55 -38.001s-19 -37 -25 -61
l-23 -98h241c112.667 0 202.5 -27.333 269.5 -82s100.5 -127.667 100.5 -219zM906.999 537.002c32.667 39.333 56.999 83.334 72.999 132.001s24 100 24 154c0 31.333 -4.16699 60.833 -12.5 88.5s-22.833 52.167 -43.5 73.5c-20 21.333 -46.167 38.166 -78.5 50.499
s-71.166 18.5 -116.499 18.5h-133l-149 -648h123c70.667 0 132.5 12.167 185.5 36.5s95.5 55.833 127.5 94.5z" />
    <glyph glyph-name="germandbls" unicode="&#xdf;" horiz-adv-x="1110" 
d="M1130 1316c0 -63.333 -12.6748 -118.332 -38.0078 -164.999s-55.666 -84.667 -90.999 -114c-37.333 -30.667 -75.333 -54 -114 -70s-73.334 -25.667 -104.001 -29l-3 -9c79.333 -21.333 143 -60.5 191 -117.5s72 -129.167 72 -216.5
c0 -83.333 -16.167 -162.333 -48.5 -237s-74.166 -138.667 -125.499 -192c-52 -54.667 -111.167 -97.834 -177.5 -129.501s-134.166 -47.5 -203.499 -47.5c-20 0 -42.167 1.16699 -66.5 3.5s-43.166 4.83301 -56.499 7.5l18 81c16 -3.33301 32.167 -6 48.5 -8
s30.833 -3 43.5 -3c56 0 106.833 17.167 152.5 51.5s83.834 78.166 114.501 131.499c30.667 54 54.334 114.333 71.001 181s25 134 25 202c0 78 -18.667 140 -56 186s-92.333 69 -165 69h-20l20 81h36c29.333 0 62.333 6.66699 99 20s69.334 33.333 98.001 60
c14 12.667 28 28.334 42 47.001s25.333 38.334 34 59.001c9.33301 22 16.666 45.833 21.999 71.5s8 54.5 8 86.5c0 49.333 -12 88 -36 116s-58.667 42 -104 42c-83.333 0 -151.166 -35.167 -203.499 -105.5s-92.833 -173.166 -121.5 -308.499l-213 -1000
c-16.667 -75.333 -42.167 -143.833 -76.5 -205.5s-74.833 -114.834 -121.5 -159.501c-46.667 -44 -96.834 -78.167 -150.501 -102.5s-106.834 -36.5 -159.501 -36.5c-58.667 0 -101.834 11.167 -129.501 33.5s-41.5 50.5 -41.5 84.5c0 28.667 8.66699 54 26 76
s42.333 33 75 33c20.667 0 38.834 -4.66699 54.501 -14s29.5 -21 41.5 -35c9.33301 -11.333 19.833 -26.666 31.5 -45.999l30.5 -50c50.667 1.33301 95.334 37.666 134.001 108.999s69.334 163 92.001 275l210 984c16.667 80 41.834 155.833 75.501 227.5
s81.5 134.5 143.5 188.5c52.667 45.333 107.334 78 164.001 98s112 30 166 30c84.667 0 153.667 -20.333 207 -61s80 -98.334 80 -173.001z" />
    <glyph glyph-name="agrave" unicode="&#xe0;" horiz-adv-x="1173" 
d="M696 132l-7.00195 0.00195312c-14.667 -12 -32.167 -27.167 -52.5 -45.5s-44.166 -35.833 -71.499 -52.5c-26 -16.667 -54.333 -31.167 -85 -43.5s-64 -18.5 -100 -18.5c-96.667 0 -172.5 34.667 -227.5 104s-82.5 164 -82.5 284c0 82.667 15.333 163 46 241
s73 148 127 210c51.333 59.333 112.333 107.166 183 143.499s143.334 54.5 218.001 54.5c47.333 0 92.5 -6.33301 135.5 -19s76.833 -27 101.5 -43l183 47l12 -15l-152 -645c-5.33301 -20.667 -10.833 -45.834 -16.5 -75.501s-8.5 -51.5 -8.5 -65.5c0 -38 8 -63.667 24 -77
s43 -20 81 -20c12.667 0 30.667 2 54 6s41.333 8.33301 54 13l-15 -64c-60 -24 -104.667 -41.333 -134 -52s-65 -16 -107 -16c-48 0 -86 14 -114 42s-43.333 63.667 -46 107zM838.998 764.002c0 22 -2.33398 43 -7.00098 63s-14.334 38.667 -29.001 56
c-13.333 16.667 -31.666 30 -54.999 40s-52.666 15 -87.999 15c-48.667 0 -96 -16 -142 -48s-87.333 -75 -124 -129c-34.667 -50.667 -63 -112 -85 -184s-33 -145 -33 -219c0 -40.667 2.33301 -76.667 7 -108s13.667 -60 27 -86c12.667 -25.333 31 -45 55 -59
s54.333 -21 91 -21c37.333 0 76.5 10.5 117.5 31.5s87.167 57.833 138.5 110.5zM892.997 1142l-40 -32c-91.333 76.667 -153.666 128 -186.999 154s-67 53.667 -101 83c-20.667 18.667 -35.834 35 -45.501 49s-14.5 32 -14.5 54c0 23.333 7.83301 43.833 23.5 61.5
s37.5 26.5 65.5 26.5c26 0 46.667 -6.66699 62 -20s32.333 -36 51 -68l78 -130z" />
    <glyph glyph-name="aacute" unicode="&#xe1;" horiz-adv-x="1173" 
d="M696 132l-7.00195 0.00195312c-14.667 -12 -32.167 -27.167 -52.5 -45.5s-44.166 -35.833 -71.499 -52.5c-26 -16.667 -54.333 -31.167 -85 -43.5s-64 -18.5 -100 -18.5c-96.667 0 -172.5 34.667 -227.5 104s-82.5 164 -82.5 284c0 82.667 15.333 163 46 241
s73 148 127 210c51.333 59.333 112.333 107.166 183 143.499s143.334 54.5 218.001 54.5c47.333 0 92.5 -6.33301 135.5 -19s76.833 -27 101.5 -43l183 47l12 -15l-152 -645c-5.33301 -20.667 -10.833 -45.834 -16.5 -75.501s-8.5 -51.5 -8.5 -65.5c0 -38 8 -63.667 24 -77
s43 -20 81 -20c12.667 0 30.667 2 54 6s41.333 8.33301 54 13l-15 -64c-60 -24 -104.667 -41.333 -134 -52s-65 -16 -107 -16c-48 0 -86 14 -114 42s-43.333 63.667 -46 107zM838.998 764.002c0 22 -2.33398 43 -7.00098 63s-14.334 38.667 -29.001 56
c-13.333 16.667 -31.666 30 -54.999 40s-52.666 15 -87.999 15c-48.667 0 -96 -16 -142 -48s-87.333 -75 -124 -129c-34.667 -50.667 -63 -112 -85 -184s-33 -145 -33 -219c0 -40.667 2.33301 -76.667 7 -108s13.667 -60 27 -86c12.667 -25.333 31 -45 55 -59
s54.333 -21 91 -21c37.333 0 76.5 10.5 117.5 31.5s87.167 57.833 138.5 110.5zM923.997 1466c0 -26.667 -6.33301 -48.166 -19 -64.499s-32 -34.5 -58 -54.5l-121.5 -89l-201.5 -148l-36 32c66 88 111.833 150.333 137.5 187l82.5 121c23.333 36 45.833 59.667 67.5 71
s45.167 17 70.5 17c22 0 40.5 -7.33301 55.5 -22s22.5 -31.334 22.5 -50.001z" />
    <glyph glyph-name="acircumflex" unicode="&#xe2;" horiz-adv-x="1173" 
d="M696 132l-7.00195 0.00195312c-14.667 -12 -32.167 -27.167 -52.5 -45.5s-44.166 -35.833 -71.499 -52.5c-26 -16.667 -54.333 -31.167 -85 -43.5s-64 -18.5 -100 -18.5c-96.667 0 -172.5 34.667 -227.5 104s-82.5 164 -82.5 284c0 82.667 15.333 163 46 241
s73 148 127 210c51.333 59.333 112.333 107.166 183 143.499s143.334 54.5 218.001 54.5c47.333 0 92.5 -6.33301 135.5 -19s76.833 -27 101.5 -43l183 47l12 -15l-152 -645c-5.33301 -20.667 -10.833 -45.834 -16.5 -75.501s-8.5 -51.5 -8.5 -65.5c0 -38 8 -63.667 24 -77
s43 -20 81 -20c12.667 0 30.667 2 54 6s41.333 8.33301 54 13l-15 -64c-60 -24 -104.667 -41.333 -134 -52s-65 -16 -107 -16c-48 0 -86 14 -114 42s-43.333 63.667 -46 107zM838.998 764.002c0 22 -2.33398 43 -7.00098 63s-14.334 38.667 -29.001 56
c-13.333 16.667 -31.666 30 -54.999 40s-52.666 15 -87.999 15c-48.667 0 -96 -16 -142 -48s-87.333 -75 -124 -129c-34.667 -50.667 -63 -112 -85 -184s-33 -145 -33 -219c0 -40.667 2.33301 -76.667 7 -108s13.667 -60 27 -86c12.667 -25.333 31 -45 55 -59
s54.333 -21 91 -21c37.333 0 76.5 10.5 117.5 31.5s87.167 57.833 138.5 110.5zM998.997 1150l-49 -31.999l-224 273l-330 -273l-47 32l303 347c12.667 15.333 25.5 26.666 38.5 33.999s32.5 11 58.5 11c25.333 0 43 -3.5 53 -10.5s18.333 -17.167 25 -30.5z" />
    <glyph glyph-name="atilde" unicode="&#xe3;" horiz-adv-x="1173" 
d="M696 132l-7.00195 0.00195312c-14.667 -12 -32.167 -27.167 -52.5 -45.5s-44.166 -35.833 -71.499 -52.5c-26 -16.667 -54.333 -31.167 -85 -43.5s-64 -18.5 -100 -18.5c-96.667 0 -172.5 34.667 -227.5 104s-82.5 164 -82.5 284c0 82.667 15.333 163 46 241
s73 148 127 210c51.333 59.333 112.333 107.166 183 143.499s143.334 54.5 218.001 54.5c47.333 0 92.5 -6.33301 135.5 -19s76.833 -27 101.5 -43l183 47l12 -15l-152 -645c-5.33301 -20.667 -10.833 -45.834 -16.5 -75.501s-8.5 -51.5 -8.5 -65.5c0 -38 8 -63.667 24 -77
s43 -20 81 -20c12.667 0 30.667 2 54 6s41.333 8.33301 54 13l-15 -64c-60 -24 -104.667 -41.333 -134 -52s-65 -16 -107 -16c-48 0 -86 14 -114 42s-43.333 63.667 -46 107zM838.998 764.002c0 22 -2.33398 43 -7.00098 63s-14.334 38.667 -29.001 56
c-13.333 16.667 -31.666 30 -54.999 40s-52.666 15 -87.999 15c-48.667 0 -96 -16 -142 -48s-87.333 -75 -124 -129c-34.667 -50.667 -63 -112 -85 -184s-33 -145 -33 -219c0 -40.667 2.33301 -76.667 7 -108s13.667 -60 27 -86c12.667 -25.333 31 -45 55 -59
s54.333 -21 91 -21c37.333 0 76.5 10.5 117.5 31.5s87.167 57.833 138.5 110.5zM1087 1472c-6.66699 -25.333 -16.6689 -51.333 -30.002 -78s-31.666 -53 -54.999 -79c-24 -26 -49.167 -46.833 -75.5 -62.5s-57.833 -23.5 -94.5 -23.5c-37.333 0 -70.166 5.5 -98.499 16.5
s-53.166 22.5 -74.499 34.5c-23.333 13.333 -45.833 25.333 -67.5 36s-44.834 16 -69.501 16c-34.667 0 -61.5 -12.167 -80.5 -36.5s-39.167 -57.5 -60.5 -99.5l-58 25c6.66699 21.333 18 47 34 77s33.333 56.333 52 79c20 24 44.333 44.5 73 61.5s58.667 25.5 90 25.5
c35.333 0 67 -5.5 95 -16.5s53.333 -22.833 76 -35.5l65.5 -36c17.667 -10 38.5 -15 62.5 -15c46 0 79.167 10.833 99.5 32.5s38.833 55.5 55.5 101.5z" />
    <glyph glyph-name="adieresis" unicode="&#xe4;" horiz-adv-x="1173" 
d="M696 132l-7.00195 0.00195312c-14.667 -12 -32.167 -27.167 -52.5 -45.5s-44.166 -35.833 -71.499 -52.5c-26 -16.667 -54.333 -31.167 -85 -43.5s-64 -18.5 -100 -18.5c-96.667 0 -172.5 34.667 -227.5 104s-82.5 164 -82.5 284c0 82.667 15.333 163 46 241
s73 148 127 210c51.333 59.333 112.333 107.166 183 143.499s143.334 54.5 218.001 54.5c47.333 0 92.5 -6.33301 135.5 -19s76.833 -27 101.5 -43l183 47l12 -15l-152 -645c-5.33301 -20.667 -10.833 -45.834 -16.5 -75.501s-8.5 -51.5 -8.5 -65.5c0 -38 8 -63.667 24 -77
s43 -20 81 -20c12.667 0 30.667 2 54 6s41.333 8.33301 54 13l-15 -64c-60 -24 -104.667 -41.333 -134 -52s-65 -16 -107 -16c-48 0 -86 14 -114 42s-43.333 63.667 -46 107zM838.998 764.002c0 22 -2.33398 43 -7.00098 63s-14.334 38.667 -29.001 56
c-13.333 16.667 -31.666 30 -54.999 40s-52.666 15 -87.999 15c-48.667 0 -96 -16 -142 -48s-87.333 -75 -124 -129c-34.667 -50.667 -63 -112 -85 -184s-33 -145 -33 -219c0 -40.667 2.33301 -76.667 7 -108s13.667 -60 27 -86c12.667 -25.333 31 -45 55 -59
s54.333 -21 91 -21c37.333 0 76.5 10.5 117.5 31.5s87.167 57.833 138.5 110.5zM1043 1364c0 -34 -11.5 -63 -34.5 -87s-50.833 -36 -83.5 -36s-60.5 12 -83.5 36s-34.5 53 -34.5 87s11.5 63 34.5 87s50.833 36 83.5 36s60.5 -12 83.5 -36s34.5 -53 34.5 -87zM612.997 1364
c0 -34 -11.5 -63 -34.5 -87s-50.833 -36 -83.5 -36s-60.5 12 -83.5 36s-34.5 53 -34.5 87s11.5 63 34.5 87s50.833 36 83.5 36s60.5 -12 83.5 -36s34.5 -53 34.5 -87z" />
    <glyph glyph-name="aring" unicode="&#xe5;" horiz-adv-x="1173" 
d="M696 132l-7.00195 0.00195312c-14.667 -12 -32.167 -27.167 -52.5 -45.5s-44.166 -35.833 -71.499 -52.5c-26 -16.667 -54.333 -31.167 -85 -43.5s-64 -18.5 -100 -18.5c-96.667 0 -172.5 34.667 -227.5 104s-82.5 164 -82.5 284c0 82.667 15.333 163 46 241
s73 148 127 210c51.333 59.333 112.333 107.166 183 143.499s143.334 54.5 218.001 54.5c47.333 0 92.5 -6.33301 135.5 -19s76.833 -27 101.5 -43l183 47l12 -15l-152 -645c-5.33301 -20.667 -10.833 -45.834 -16.5 -75.501s-8.5 -51.5 -8.5 -65.5c0 -38 8 -63.667 24 -77
s43 -20 81 -20c12.667 0 30.667 2 54 6s41.333 8.33301 54 13l-15 -64c-60 -24 -104.667 -41.333 -134 -52s-65 -16 -107 -16c-48 0 -86 14 -114 42s-43.333 63.667 -46 107zM838.998 764.002c0 22 -2.33398 43 -7.00098 63s-14.334 38.667 -29.001 56
c-13.333 16.667 -31.666 30 -54.999 40s-52.666 15 -87.999 15c-48.667 0 -96 -16 -142 -48s-87.333 -75 -124 -129c-34.667 -50.667 -63 -112 -85 -184s-33 -145 -33 -219c0 -40.667 2.33301 -76.667 7 -108s13.667 -60 27 -86c12.667 -25.333 31 -45 55 -59
s54.333 -21 91 -21c37.333 0 76.5 10.5 117.5 31.5s87.167 57.833 138.5 110.5zM971.997 1373c0 -72 -27.667 -133.168 -83 -183.501s-127 -75.5 -215 -75.5c-69.333 0 -124 16.667 -164 50s-60 77.333 -60 132c0 72.667 28.667 134.667 86 186s128.666 77 213.999 77
c66.667 0 120.334 -17.167 161.001 -51.5s61 -79.166 61 -134.499zM845.997 1373c0 34.667 -8.83301 64.502 -26.5 89.502s-44.5 37.5 -80.5 37.5c-48.667 0 -88 -20.333 -118 -61s-45 -87.334 -45 -140.001c0 -36.667 9 -66.834 27 -90.501s45.333 -35.5 82 -35.5
c49.333 0 88.5 19.667 117.5 59s43.5 86.333 43.5 141z" />
    <glyph glyph-name="ae" unicode="&#xe6;" horiz-adv-x="1565" 
d="M1525 801c0 -66.667 -19.001 -124 -57.001 -172s-105.667 -89.333 -203 -124c-62.667 -22.667 -125.334 -39.5 -188.001 -50.5s-132.667 -19.833 -210 -26.5c0 -122 18.833 -210 56.5 -264s95.5 -81 173.5 -81c66.667 0 125.5 16.667 176.5 50s101.167 83 150.5 149
l57 -42c-53.333 -81.333 -120 -146.333 -200 -195s-163 -73 -249 -73c-88 0 -158.333 18 -211 54s-91.667 83.333 -117 142h-6c-41.333 -44 -80.166 -78.667 -116.499 -104s-72.833 -44.666 -109.5 -57.999c-36 -13.333 -69 -22 -99 -26s-60.333 -6 -91 -6
c-72 0 -129.333 18.333 -172 55s-64 85.667 -64 147c0 72 21.333 135.833 64 191.5s112 100.5 208 134.5c89.333 30.667 160.5 50.667 213.5 60l178.5 30l22 90.5c10 40.333 15 72.166 15 95.499c0 16 -2.33301 33.333 -7 52s-13 36 -25 52s-28.167 29.333 -48.5 40
s-46.5 16 -78.5 16c-33.333 0 -67.333 -6.33301 -102 -19s-58.667 -23.334 -72 -32.001c0 -14 -0.166992 -34.667 -0.5 -62s-2.5 -50.666 -6.5 -69.999c-6 -26 -20.833 -47.667 -44.5 -65s-54.834 -26 -93.501 -26c-27.333 0 -47.333 8.16699 -60 24.5
s-19 36.166 -19 59.499c0 36 13.833 70 41.5 102s61.834 59.667 102.501 83c36.667 21.333 80 39.333 130 54s97.667 22 143 22c36 0 68.333 -1.33301 97 -4s56.334 -8.66699 83.001 -18c27.333 -9.33301 50.833 -21.666 70.5 -36.999s36.167 -37 49.5 -65
c44 36 95.167 65.667 153.5 89s118.833 35 181.5 35c96 0 167.167 -19.5 213.5 -58.5s69.5 -88.833 69.5 -149.5zM1341 826c0 26 -3.66895 46.498 -11.002 61.498s-16.666 26.167 -27.999 33.5c-12 8 -24.667 13 -38 15s-27 3 -41 3
c-77.333 0 -150.666 -43.167 -219.999 -129.5s-112.666 -189.833 -129.999 -310.5c54.667 4.66699 109.167 11.334 163.5 20.001s101.166 23.334 140.499 44.001c55.333 28.667 96.5 64.167 123.5 106.5s40.5 94.5 40.5 156.5zM686.997 509.998
c-53.333 -4.66699 -105.667 -13.668 -157 -27.001s-98 -32 -140 -56c-40.667 -22.667 -74.167 -52.667 -100.5 -90s-39.5 -80 -39.5 -128c0 -40 12 -70.5 36 -91.5s55 -31.5 93 -31.5c52 0 104.667 12.833 158 38.5s101.333 65.5 144 119.5c-2 10 -3.83301 25.333 -5.5 46
s-2.5 41.334 -2.5 62.001c0 30.667 1.66699 60 5 88s6.33301 51.333 9 70z" />
    <glyph glyph-name="ccedilla" unicode="&#xe7;" horiz-adv-x="929" 
d="M401 -25c-103.333 8 -184.834 45.668 -244.501 113.001s-89.5 159.333 -89.5 276c0 83.333 12.833 163.166 38.5 239.499s61.5 144.166 107.5 203.499s104.167 107.833 174.5 145.5s148.5 56.5 234.5 56.5c95.333 0 167.833 -20.167 217.5 -60.5
s74.5 -91.166 74.5 -152.499c0 -46 -10.833 -86.333 -32.5 -121s-54.167 -52 -97.5 -52c-36 0 -63 9 -81 27s-27 38 -27 60c0 21.333 7.33301 50.5 22 87.5l35 89.5c-7.33301 18 -23.666 31.167 -48.999 39.5s-51.666 12.5 -78.999 12.5
c-90.667 0 -168.834 -52.833 -234.501 -158.5s-98.5 -235.167 -98.5 -388.5c0 -94.667 21.167 -169.834 63.5 -225.501s99.5 -83.5 171.5 -83.5c64.667 0 122.167 17.333 172.5 52s98.5 83.667 144.5 147l57 -42c-42.667 -67.333 -100.334 -126.666 -173.001 -177.999
s-149 -80.333 -229 -87l-16 -74c68 0 119.333 -11.833 154 -35.5s52 -54.167 52 -91.5c0 -43.333 -12.5 -79.833 -37.5 -109.5s-57.5 -52.167 -97.5 -67.5c-37.333 -14.667 -81.166 -25.167 -131.499 -31.5s-106.833 -9.5 -169.5 -9.5l15 72c28 0 59.333 0.5 94 1.5
s63.667 4.5 87 10.5c27.333 6.66699 49 16.167 65 28.5s24 31.5 24 57.5c0 21.333 -11.5 37.833 -34.5 49.5s-62.833 17.5 -119.5 17.5z" />
    <glyph glyph-name="egrave" unicode="&#xe8;" horiz-adv-x="966" 
d="M926 801c0 -70.667 -22.168 -131.332 -66.501 -181.999s-108.833 -91 -193.5 -121c-62 -22.667 -124.667 -41 -188 -55s-133.333 -25.667 -210 -35c0 -105.333 19.5 -185.833 58.5 -241.5s96.167 -83.5 171.5 -83.5c66.667 0 125.5 16.667 176.5 50s101.167 83 150.5 149
l57 -42c-53.333 -81.333 -120 -146.333 -200 -195s-163 -73 -249 -73c-118 0 -208.167 33 -270.5 99s-93.5 159.667 -93.5 281c0 84 13.167 164.167 39.5 240.5s64.833 146.166 115.5 209.499c49.333 62 109.833 112 181.5 150s150.834 57 237.501 57
c96 0 167.167 -19.5 213.5 -58.5s69.5 -88.833 69.5 -149.5zM741.999 826.002c0 26 -3.66992 46.5 -11.0029 61.5s-16.666 26.167 -27.999 33.5c-12 8 -24.667 13 -38 15s-27 3 -41 3c-80 0 -153.833 -44 -221.5 -132s-110.5 -197.667 -128.5 -329
c46.667 6.66699 99.334 16.167 158.001 28.5s107.334 28.5 146.001 48.5c55.333 28.667 96.5 65.5 123.5 110.5s40.5 98.5 40.5 160.5zM819.996 1142l-40 -32c-91.333 76.667 -153.666 128 -186.999 154s-67 53.667 -101 83c-20.667 18.667 -35.834 35 -45.501 49
s-14.5 32 -14.5 54c0 23.333 7.83301 43.833 23.5 61.5s37.5 26.5 65.5 26.5c26 0 46.667 -6.66699 62 -20s32.333 -36 51 -68l78 -130z" />
    <glyph glyph-name="eacute" unicode="&#xe9;" horiz-adv-x="966" 
d="M926 801c0 -70.667 -22.168 -131.332 -66.501 -181.999s-108.833 -91 -193.5 -121c-62 -22.667 -124.667 -41 -188 -55s-133.333 -25.667 -210 -35c0 -105.333 19.5 -185.833 58.5 -241.5s96.167 -83.5 171.5 -83.5c66.667 0 125.5 16.667 176.5 50s101.167 83 150.5 149
l57 -42c-53.333 -81.333 -120 -146.333 -200 -195s-163 -73 -249 -73c-118 0 -208.167 33 -270.5 99s-93.5 159.667 -93.5 281c0 84 13.167 164.167 39.5 240.5s64.833 146.166 115.5 209.499c49.333 62 109.833 112 181.5 150s150.834 57 237.501 57
c96 0 167.167 -19.5 213.5 -58.5s69.5 -88.833 69.5 -149.5zM741.999 826.002c0 26 -3.66992 46.5 -11.0029 61.5s-16.666 26.167 -27.999 33.5c-12 8 -24.667 13 -38 15s-27 3 -41 3c-80 0 -153.833 -44 -221.5 -132s-110.5 -197.667 -128.5 -329
c46.667 6.66699 99.334 16.167 158.001 28.5s107.334 28.5 146.001 48.5c55.333 28.667 96.5 65.5 123.5 110.5s40.5 98.5 40.5 160.5zM903.996 1466c0 -26.667 -6.33301 -48.166 -19 -64.499s-32 -34.5 -58 -54.5l-121.5 -89l-201.5 -148l-36 32
c66 88 111.833 150.333 137.5 187l82.5 121c23.333 36 45.833 59.667 67.5 71s45.167 17 70.5 17c22 0 40.5 -7.33301 55.5 -22s22.5 -31.334 22.5 -50.001z" />
    <glyph glyph-name="ecircumflex" unicode="&#xea;" horiz-adv-x="966" 
d="M926 801c0 -70.667 -22.168 -131.332 -66.501 -181.999s-108.833 -91 -193.5 -121c-62 -22.667 -124.667 -41 -188 -55s-133.333 -25.667 -210 -35c0 -105.333 19.5 -185.833 58.5 -241.5s96.167 -83.5 171.5 -83.5c66.667 0 125.5 16.667 176.5 50s101.167 83 150.5 149
l57 -42c-53.333 -81.333 -120 -146.333 -200 -195s-163 -73 -249 -73c-118 0 -208.167 33 -270.5 99s-93.5 159.667 -93.5 281c0 84 13.167 164.167 39.5 240.5s64.833 146.166 115.5 209.499c49.333 62 109.833 112 181.5 150s150.834 57 237.501 57
c96 0 167.167 -19.5 213.5 -58.5s69.5 -88.833 69.5 -149.5zM741.999 826.002c0 26 -3.66992 46.5 -11.0029 61.5s-16.666 26.167 -27.999 33.5c-12 8 -24.667 13 -38 15s-27 3 -41 3c-80 0 -153.833 -44 -221.5 -132s-110.5 -197.667 -128.5 -329
c46.667 6.66699 99.334 16.167 158.001 28.5s107.334 28.5 146.001 48.5c55.333 28.667 96.5 65.5 123.5 110.5s40.5 98.5 40.5 160.5zM960.996 1150l-49 -31.999l-224 273l-330 -273l-47 32l303 347c12.667 15.333 25.5 26.666 38.5 33.999s32.5 11 58.5 11
c25.333 0 43 -3.5 53 -10.5s18.333 -17.167 25 -30.5z" />
    <glyph glyph-name="edieresis" unicode="&#xeb;" horiz-adv-x="966" 
d="M926 801c0 -70.667 -22.168 -131.332 -66.501 -181.999s-108.833 -91 -193.5 -121c-62 -22.667 -124.667 -41 -188 -55s-133.333 -25.667 -210 -35c0 -105.333 19.5 -185.833 58.5 -241.5s96.167 -83.5 171.5 -83.5c66.667 0 125.5 16.667 176.5 50s101.167 83 150.5 149
l57 -42c-53.333 -81.333 -120 -146.333 -200 -195s-163 -73 -249 -73c-118 0 -208.167 33 -270.5 99s-93.5 159.667 -93.5 281c0 84 13.167 164.167 39.5 240.5s64.833 146.166 115.5 209.499c49.333 62 109.833 112 181.5 150s150.834 57 237.501 57
c96 0 167.167 -19.5 213.5 -58.5s69.5 -88.833 69.5 -149.5zM741.999 826.002c0 26 -3.66992 46.5 -11.0029 61.5s-16.666 26.167 -27.999 33.5c-12 8 -24.667 13 -38 15s-27 3 -41 3c-80 0 -153.833 -44 -221.5 -132s-110.5 -197.667 -128.5 -329
c46.667 6.66699 99.334 16.167 158.001 28.5s107.334 28.5 146.001 48.5c55.333 28.667 96.5 65.5 123.5 110.5s40.5 98.5 40.5 160.5zM994.996 1364c0 -34 -11.5 -63 -34.5 -87s-50.833 -36 -83.5 -36s-60.5 12 -83.5 36s-34.5 53 -34.5 87s11.5 63 34.5 87
s50.833 36 83.5 36s60.5 -12 83.5 -36s34.5 -53 34.5 -87zM564.996 1364c0 -34 -11.5 -63 -34.5 -87s-50.833 -36 -83.5 -36s-60.5 12 -83.5 36s-34.5 53 -34.5 87s11.5 63 34.5 87s50.833 36 83.5 36s60.5 -12 83.5 -36s34.5 -53 34.5 -87z" />
    <glyph glyph-name="igrave" unicode="&#xec;" horiz-adv-x="609" 
d="M551 109l-15.0029 -63.998c-61.333 -24.667 -110.333 -41.834 -147 -51.501s-68 -14.5 -94 -14.5c-53.333 0 -93.333 13.833 -120 41.5s-40 61.834 -40 102.501c0 15.333 1.33301 31.333 4 48s7 37.667 13 63l106 425c5.33301 23.333 10.5 48.333 15.5 75
s7.5 49.334 7.5 68.001c0 37.333 -6.16699 62.166 -18.5 74.499s-37.5 18.5 -75.5 18.5c-14.667 0 -34.167 -2.33301 -58.5 -7s-42.833 -8.66699 -55.5 -12l15 64c52 23.333 98.667 40.666 140 51.999s74 17 98 17c54.667 0 94.334 -13 119.001 -39s37 -61 37 -105
c0 -12 -1.33301 -28.333 -4 -49s-6.66699 -41.334 -12 -62.001l-107 -425c-6.66699 -26 -12.5 -51.5 -17.5 -76.5s-7.5 -45.5 -7.5 -61.5c0 -38 8.5 -64 25.5 -78s44.5 -21 82.5 -21c12.667 0 30.834 1.66699 54.501 5s41.834 7.33301 54.501 12zM589.997 1142l-40 -32
c-91.333 76.667 -153.666 128 -186.999 154s-67 53.667 -101 83c-20.667 18.667 -35.834 35 -45.501 49s-14.5 32 -14.5 54c0 23.333 7.83301 43.833 23.5 61.5s37.5 26.5 65.5 26.5c26 0 46.667 -6.66699 62 -20s32.333 -36 51 -68l78 -130z" />
    <glyph glyph-name="iacute" unicode="&#xed;" horiz-adv-x="609" 
d="M551 109l-15.0029 -63.998c-61.333 -24.667 -110.333 -41.834 -147 -51.501s-68 -14.5 -94 -14.5c-53.333 0 -93.333 13.833 -120 41.5s-40 61.834 -40 102.501c0 15.333 1.33301 31.333 4 48s7 37.667 13 63l106 425c5.33301 23.333 10.5 48.333 15.5 75
s7.5 49.334 7.5 68.001c0 37.333 -6.16699 62.166 -18.5 74.499s-37.5 18.5 -75.5 18.5c-14.667 0 -34.167 -2.33301 -58.5 -7s-42.833 -8.66699 -55.5 -12l15 64c52 23.333 98.667 40.666 140 51.999s74 17 98 17c54.667 0 94.334 -13 119.001 -39s37 -61 37 -105
c0 -12 -1.33301 -28.333 -4 -49s-6.66699 -41.334 -12 -62.001l-107 -425c-6.66699 -26 -12.5 -51.5 -17.5 -76.5s-7.5 -45.5 -7.5 -61.5c0 -38 8.5 -64 25.5 -78s44.5 -21 82.5 -21c12.667 0 30.834 1.66699 54.501 5s41.834 7.33301 54.501 12zM663.997 1466
c0 -26.667 -6.33301 -48.166 -19 -64.499s-32 -34.5 -58 -54.5l-121.5 -89l-201.5 -148l-36 32c66 88 111.833 150.333 137.5 187l82.5 121c23.333 36 45.833 59.667 67.5 71s45.167 17 70.5 17c22 0 40.5 -7.33301 55.5 -22s22.5 -31.334 22.5 -50.001z" />
    <glyph glyph-name="icircumflex" unicode="&#xee;" horiz-adv-x="609" 
d="M551 109l-15.0029 -63.998c-61.333 -24.667 -110.333 -41.834 -147 -51.501s-68 -14.5 -94 -14.5c-53.333 0 -93.333 13.833 -120 41.5s-40 61.834 -40 102.501c0 15.333 1.33301 31.333 4 48s7 37.667 13 63l106 425c5.33301 23.333 10.5 48.333 15.5 75
s7.5 49.334 7.5 68.001c0 37.333 -6.16699 62.166 -18.5 74.499s-37.5 18.5 -75.5 18.5c-14.667 0 -34.167 -2.33301 -58.5 -7s-42.833 -8.66699 -55.5 -12l15 64c52 23.333 98.667 40.666 140 51.999s74 17 98 17c54.667 0 94.334 -13 119.001 -39s37 -61 37 -105
c0 -12 -1.33301 -28.333 -4 -49s-6.66699 -41.334 -12 -62.001l-107 -425c-6.66699 -26 -12.5 -51.5 -17.5 -76.5s-7.5 -45.5 -7.5 -61.5c0 -38 8.5 -64 25.5 -78s44.5 -21 82.5 -21c12.667 0 30.834 1.66699 54.501 5s41.834 7.33301 54.501 12zM637.997 1150
l-50.999 -28.999l-192 270l-292 -270l-45 29l263 343c8.66699 12.667 20 24 34 34s35.333 15 64 15c29.333 0 48.666 -5.33301 57.999 -16s15.333 -20.334 18 -29.001z" />
    <glyph glyph-name="idieresis" unicode="&#xef;" horiz-adv-x="609" 
d="M551 109l-15.0029 -63.998c-61.333 -24.667 -110.333 -41.834 -147 -51.501s-68 -14.5 -94 -14.5c-53.333 0 -93.333 13.833 -120 41.5s-40 61.834 -40 102.501c0 15.333 1.33301 31.333 4 48s7 37.667 13 63l106 425c5.33301 23.333 10.5 48.333 15.5 75
s7.5 49.334 7.5 68.001c0 37.333 -6.16699 62.166 -18.5 74.499s-37.5 18.5 -75.5 18.5c-14.667 0 -34.167 -2.33301 -58.5 -7s-42.833 -8.66699 -55.5 -12l15 64c52 23.333 98.667 40.666 140 51.999s74 17 98 17c54.667 0 94.334 -13 119.001 -39s37 -61 37 -105
c0 -12 -1.33301 -28.333 -4 -49s-6.66699 -41.334 -12 -62.001l-107 -425c-6.66699 -26 -12.5 -51.5 -17.5 -76.5s-7.5 -45.5 -7.5 -61.5c0 -38 8.5 -64 25.5 -78s44.5 -21 82.5 -21c12.667 0 30.834 1.66699 54.501 5s41.834 7.33301 54.501 12zM704.997 1364
c0 -34 -11 -63 -33 -87s-49.333 -36 -82 -36s-60 12 -82 36s-33 53 -33 87s11 63 33 87s49.333 36 82 36s60 -12 82 -36s33 -53 33 -87zM354.997 1364c0 -34 -11 -63 -33 -87s-49.333 -36 -82 -36s-60 12 -82 36s-33 53 -33 87s11 63 33 87s49.333 36 82 36s60 -12 82 -36
s33 -53 33 -87z" />
    <glyph glyph-name="eth" unicode="&#xf0;" horiz-adv-x="1119" 
d="M1120 1453l-215.998 -110.001c48.667 -67.333 89.167 -143 121.5 -227s48.5 -178.667 48.5 -284c0 -106 -13.167 -211 -39.5 -315s-65.5 -196 -117.5 -276c-59.333 -90 -128 -157.667 -206 -203s-164.333 -68 -259 -68c-110.667 0 -202.334 36.5 -275.001 109.5
s-109 169.833 -109 290.5c0 86.667 14.5 167 43.5 241s69.167 139.333 120.5 196c51.333 55.333 111.166 98.333 179.499 129s139.833 46 214.5 46c61.333 0 114.833 -15 160.5 -45s75.5 -61.333 89.5 -94l9 2c0.666992 8 1 17.167 1 27.5v26.5
c0 70.667 -10.667 140.334 -32 209.001s-44 127 -68 175l-261 -141l-41 75l262 137c-18.667 30 -39.5 57.167 -62.5 81.5s-46.833 45.833 -71.5 64.5l59 56c30 -16.667 63.5 -40.5 100.5 -71.5s63.833 -56.5 80.5 -76.5l225 120zM745.002 247.999
c31.333 59.333 55.167 124.666 71.5 195.999s24.5 139 24.5 203c0 76 -18 138.5 -54 187.5s-87.667 73.5 -155 73.5c-58.667 0 -112.5 -17.5 -161.5 -52.5s-90.5 -89.833 -124.5 -164.5c-28 -62.667 -47.167 -129 -57.5 -199s-15.5 -128.333 -15.5 -175
c0 -87.333 16.5 -155.166 49.5 -203.499s84.167 -72.5 153.5 -72.5c58 0 110 20 156 60s83.667 89 113 147z" />
    <glyph glyph-name="ntilde" unicode="&#xf1;" horiz-adv-x="1208" 
d="M1149 116l-14.9971 -63.999c-60 -24 -106.667 -41.5 -140 -52.5s-67 -16.5 -101 -16.5c-53.333 0 -93.333 13.833 -120 41.5s-40 61.834 -40 102.501c0 14.667 1.33301 30.834 4 48.501s7 38.5 13 62.5l98 373c7.33301 28.667 13.166 54.667 17.499 78s6.5 42 6.5 56
c0 44.667 -10.667 80 -32 106s-53 39 -95 39c-40.667 0 -86.334 -13.333 -137.001 -40s-98.334 -65.334 -143.001 -116.001l-169 -734h-186l149 648l14.5 69.5c6.33301 30.333 9.5 54.833 9.5 73.5c0 37.333 -6.33301 62.333 -19 75s-38 19 -76 19
c-14.667 0 -33.334 -2.5 -56.001 -7.5s-40.334 -9.16699 -53.001 -12.5l15 64c52 23.333 98 40.666 138 51.999s74.333 17 103 17c52.667 0 90.334 -14.333 113.001 -43s34.667 -68.334 36 -119.001h6c73.333 58.667 136.666 102.167 189.999 130.5s114 42.5 182 42.5
c64 0 114 -18.5 150 -55.5s54 -85.5 54 -145.5c0 -12 -1.83301 -33.333 -5.5 -64s-9.5 -61 -17.5 -91l-84 -321c-6 -21.333 -11.833 -45.833 -17.5 -73.5s-8.5 -49.167 -8.5 -64.5c0 -38 8.33301 -63.833 25 -77.5s44 -20.5 82 -20.5c12.667 0 30.834 2.16699 54.501 6.5
s41.834 8.83301 54.501 13.5zM1099 1472c-6.66699 -25.333 -16.6689 -51.333 -30.002 -78s-31.666 -53 -54.999 -79c-24 -26 -49.167 -46.833 -75.5 -62.5s-57.833 -23.5 -94.5 -23.5c-37.333 0 -70.166 5.5 -98.499 16.5s-53.166 22.5 -74.499 34.5
c-23.333 13.333 -45.833 25.333 -67.5 36s-44.834 16 -69.501 16c-34.667 0 -61.5 -12.167 -80.5 -36.5s-39.167 -57.5 -60.5 -99.5l-58 25c6.66699 21.333 18 47 34 77s33.333 56.333 52 79c20 24 44.333 44.5 73 61.5s58.667 25.5 90 25.5c35.333 0 67 -5.5 95 -16.5
s53.333 -22.833 76 -35.5l65.5 -36c17.667 -10 38.5 -15 62.5 -15c46 0 79.167 10.833 99.5 32.5s38.833 55.5 55.5 101.5z" />
    <glyph glyph-name="ograve" unicode="&#xf2;" horiz-adv-x="1100" 
d="M1033 616c0 -78.667 -13.333 -157.335 -40 -236.002s-65.334 -147.667 -116.001 -207c-51.333 -61.333 -113.166 -110.5 -185.499 -147.5s-156.166 -55.5 -251.499 -55.5c-110.667 0 -200.5 35.667 -269.5 107s-103.5 167.333 -103.5 288
c0 88.667 14.667 171.334 44 248.001s68.666 144 117.999 202c50 58 111.833 104.833 185.5 140.5s153.5 53.5 239.5 53.5c118.667 0 211.5 -36.167 278.5 -108.5s100.5 -167.166 100.5 -284.499zM829 653.999c0 94.667 -16.833 165.668 -50.5 213.001s-82.167 71 -145.5 71
c-55.333 0 -107.5 -17 -156.5 -51s-91.167 -89.333 -126.5 -166c-27.333 -58 -47.333 -122.5 -60 -193.5s-19 -136.5 -19 -196.5c0 -95.333 16.5 -167.5 49.5 -216.5s82.833 -73.5 149.5 -73.5c59.333 0 112 18.667 158 56s83.333 84.666 112 141.999
c28.667 56 50.667 120.167 66 192.5s23 146.5 23 222.5zM865 1142l-40 -32c-91.333 76.667 -153.666 128 -186.999 154s-67 53.667 -101 83c-20.667 18.667 -35.834 35 -45.501 49s-14.5 32 -14.5 54c0 23.333 7.83301 43.833 23.5 61.5s37.5 26.5 65.5 26.5
c26 0 46.667 -6.66699 62 -20s32.333 -36 51 -68l78 -130z" />
    <glyph glyph-name="oacute" unicode="&#xf3;" horiz-adv-x="1100" 
d="M1033 616c0 -78.667 -13.333 -157.335 -40 -236.002s-65.334 -147.667 -116.001 -207c-51.333 -61.333 -113.166 -110.5 -185.499 -147.5s-156.166 -55.5 -251.499 -55.5c-110.667 0 -200.5 35.667 -269.5 107s-103.5 167.333 -103.5 288
c0 88.667 14.667 171.334 44 248.001s68.666 144 117.999 202c50 58 111.833 104.833 185.5 140.5s153.5 53.5 239.5 53.5c118.667 0 211.5 -36.167 278.5 -108.5s100.5 -167.166 100.5 -284.499zM829 653.999c0 94.667 -16.833 165.668 -50.5 213.001s-82.167 71 -145.5 71
c-55.333 0 -107.5 -17 -156.5 -51s-91.167 -89.333 -126.5 -166c-27.333 -58 -47.333 -122.5 -60 -193.5s-19 -136.5 -19 -196.5c0 -95.333 16.5 -167.5 49.5 -216.5s82.833 -73.5 149.5 -73.5c59.333 0 112 18.667 158 56s83.333 84.666 112 141.999
c28.667 56 50.667 120.167 66 192.5s23 146.5 23 222.5zM907 1466c0 -26.667 -6.33301 -48.166 -19 -64.499s-32 -34.5 -58 -54.5l-121.5 -89l-201.5 -148l-36 32c66 88 111.833 150.333 137.5 187l82.5 121c23.333 36 45.833 59.667 67.5 71s45.167 17 70.5 17
c22 0 40.5 -7.33301 55.5 -22s22.5 -31.334 22.5 -50.001z" />
    <glyph glyph-name="ocircumflex" unicode="&#xf4;" horiz-adv-x="1100" 
d="M1033 616c0 -78.667 -13.333 -157.335 -40 -236.002s-65.334 -147.667 -116.001 -207c-51.333 -61.333 -113.166 -110.5 -185.499 -147.5s-156.166 -55.5 -251.499 -55.5c-110.667 0 -200.5 35.667 -269.5 107s-103.5 167.333 -103.5 288
c0 88.667 14.667 171.334 44 248.001s68.666 144 117.999 202c50 58 111.833 104.833 185.5 140.5s153.5 53.5 239.5 53.5c118.667 0 211.5 -36.167 278.5 -108.5s100.5 -167.166 100.5 -284.499zM829 653.999c0 94.667 -16.833 165.668 -50.5 213.001s-82.167 71 -145.5 71
c-55.333 0 -107.5 -17 -156.5 -51s-91.167 -89.333 -126.5 -166c-27.333 -58 -47.333 -122.5 -60 -193.5s-19 -136.5 -19 -196.5c0 -95.333 16.5 -167.5 49.5 -216.5s82.833 -73.5 149.5 -73.5c59.333 0 112 18.667 158 56s83.333 84.666 112 141.999
c28.667 56 50.667 120.167 66 192.5s23 146.5 23 222.5zM987 1150l-49 -31.999l-224 273l-330 -273l-47 32l303 347c12.667 15.333 25.5 26.666 38.5 33.999s32.5 11 58.5 11c25.333 0 43 -3.5 53 -10.5s18.333 -17.167 25 -30.5z" />
    <glyph glyph-name="otilde" unicode="&#xf5;" horiz-adv-x="1100" 
d="M1033 616c0 -78.667 -13.333 -157.335 -40 -236.002s-65.334 -147.667 -116.001 -207c-51.333 -61.333 -113.166 -110.5 -185.499 -147.5s-156.166 -55.5 -251.499 -55.5c-110.667 0 -200.5 35.667 -269.5 107s-103.5 167.333 -103.5 288
c0 88.667 14.667 171.334 44 248.001s68.666 144 117.999 202c50 58 111.833 104.833 185.5 140.5s153.5 53.5 239.5 53.5c118.667 0 211.5 -36.167 278.5 -108.5s100.5 -167.166 100.5 -284.499zM829 653.999c0 94.667 -16.833 165.668 -50.5 213.001s-82.167 71 -145.5 71
c-55.333 0 -107.5 -17 -156.5 -51s-91.167 -89.333 -126.5 -166c-27.333 -58 -47.333 -122.5 -60 -193.5s-19 -136.5 -19 -196.5c0 -95.333 16.5 -167.5 49.5 -216.5s82.833 -73.5 149.5 -73.5c59.333 0 112 18.667 158 56s83.333 84.666 112 141.999
c28.667 56 50.667 120.167 66 192.5s23 146.5 23 222.5zM1065 1472c-6.66699 -25.333 -16.6689 -51.333 -30.002 -78s-31.666 -53 -54.999 -79c-24 -26 -49.167 -46.833 -75.5 -62.5s-57.833 -23.5 -94.5 -23.5c-37.333 0 -70.166 5.5 -98.499 16.5
s-53.166 22.5 -74.499 34.5c-23.333 13.333 -45.833 25.333 -67.5 36s-44.834 16 -69.501 16c-34.667 0 -61.5 -12.167 -80.5 -36.5s-39.167 -57.5 -60.5 -99.5l-58 25c6.66699 21.333 18 47 34 77s33.333 56.333 52 79c20 24 44.333 44.5 73 61.5s58.667 25.5 90 25.5
c35.333 0 67 -5.5 95 -16.5s53.333 -22.833 76 -35.5l65.5 -36c17.667 -10 38.5 -15 62.5 -15c46 0 79.167 10.833 99.5 32.5s38.833 55.5 55.5 101.5z" />
    <glyph glyph-name="odieresis" unicode="&#xf6;" horiz-adv-x="1100" 
d="M1033 616c0 -78.667 -13.333 -157.335 -40 -236.002s-65.334 -147.667 -116.001 -207c-51.333 -61.333 -113.166 -110.5 -185.499 -147.5s-156.166 -55.5 -251.499 -55.5c-110.667 0 -200.5 35.667 -269.5 107s-103.5 167.333 -103.5 288
c0 88.667 14.667 171.334 44 248.001s68.666 144 117.999 202c50 58 111.833 104.833 185.5 140.5s153.5 53.5 239.5 53.5c118.667 0 211.5 -36.167 278.5 -108.5s100.5 -167.166 100.5 -284.499zM829 653.999c0 94.667 -16.833 165.668 -50.5 213.001s-82.167 71 -145.5 71
c-55.333 0 -107.5 -17 -156.5 -51s-91.167 -89.333 -126.5 -166c-27.333 -58 -47.333 -122.5 -60 -193.5s-19 -136.5 -19 -196.5c0 -95.333 16.5 -167.5 49.5 -216.5s82.833 -73.5 149.5 -73.5c59.333 0 112 18.667 158 56s83.333 84.666 112 141.999
c28.667 56 50.667 120.167 66 192.5s23 146.5 23 222.5zM1032 1364c0 -34 -11.5 -63 -34.5 -87s-50.833 -36 -83.5 -36s-60.5 12 -83.5 36s-34.5 53 -34.5 87s11.5 63 34.5 87s50.833 36 83.5 36s60.5 -12 83.5 -36s34.5 -53 34.5 -87zM602 1364c0 -34 -11.5 -63 -34.5 -87
s-50.833 -36 -83.5 -36s-60.5 12 -83.5 36s-34.5 53 -34.5 87s11.5 63 34.5 87s50.833 36 83.5 36s60.5 -12 83.5 -36s34.5 -53 34.5 -87z" />
    <glyph glyph-name="divide" unicode="&#xf7;" horiz-adv-x="1317" 
d="M813 966c0 -35.333 -12.667 -65.666 -38 -90.999s-55.666 -38 -90.999 -38s-65.666 12.667 -90.999 38s-38 55.666 -38 90.999s12.667 65.333 38 90s55.666 37 90.999 37s65.666 -12.333 90.999 -37s38 -54.667 38 -90zM1198 497h-1029v125h1029v-125zM813 153
c0 -35.333 -12.667 -65.333 -38 -90s-55.666 -37 -90.999 -37s-65.666 12.333 -90.999 37s-38 54.667 -38 90s12.667 65.666 38 90.999s55.666 38 90.999 38s65.666 -12.667 90.999 -38s38 -55.666 38 -90.999z" />
    <glyph glyph-name="oslash" unicode="&#xf8;" horiz-adv-x="1100" 
d="M1033 616c0 -78.667 -13.334 -157.334 -40.001 -236.001s-65.334 -147.667 -116.001 -207c-51.333 -61.333 -113.166 -110.5 -185.499 -147.5s-156.166 -55.5 -251.499 -55.5c-56 0 -108.167 10.667 -156.5 32s-89.5 51.333 -123.5 90l-138 -126l-46 45l146 134
c-18 31.333 -31.667 65 -41 101s-14 75.667 -14 119c0 88.667 14.667 171.334 44 248.001s68.666 144 117.999 202c50 58 111.833 104.833 185.5 140.5s153.5 53.5 239.5 53.5c64 0 119.167 -10.333 165.5 -31s85.833 -50 118.5 -88l131 120l46 -46l-139 -126
c18.667 -31.333 32.834 -65.833 42.501 -103.5s14.5 -77.167 14.5 -118.5zM818.999 782c-12 47.333 -32.6699 85.332 -62.0029 113.999s-70.666 43 -123.999 43c-59.333 0 -113.166 -18.167 -161.499 -54.5s-89.5 -90.833 -123.5 -163.5
c-29.333 -61.333 -50.166 -128.166 -62.499 -200.499s-18.5 -135.833 -18.5 -190.5c0 -8.66699 0.166992 -18 0.5 -28s0.5 -19 0.5 -27zM741.996 238.999c29.333 57.333 51.835 122.001 67.502 194.001s23.5 146 23.5 222c0 8 -0.166992 17 -0.5 27s-0.5 19 -0.5 27
l-552 -507c11.333 -48.667 32.5 -87.834 63.5 -117.501s73.167 -44.5 126.5 -44.5c59.333 0 112.166 18.667 158.499 56s84.166 85 113.499 143z" />
    <glyph glyph-name="ugrave" unicode="&#xf9;" horiz-adv-x="1178" 
d="M707 140l-5.99805 0.000976562l-88 -68c-28 -20.667 -55.667 -38 -83 -52c-32 -16 -61 -27.5 -87 -34.5s-60 -10.5 -102 -10.5c-64 0 -113.667 18.5 -149 55.5s-53 85.5 -53 145.5c0 16 1.33301 35 4 57s9 54.667 19 98l78 317c6.66699 29.333 12.167 55.333 16.5 78
s6.5 44.334 6.5 65.001c0 37.333 -6.16699 62.166 -18.5 74.499s-37.5 18.5 -75.5 18.5c-14.667 0 -33.334 -2.66699 -56.001 -8s-40.334 -9.66602 -53.001 -12.999l15 64c52 23.333 97.833 41 137.5 53s71.5 18 95.5 18c53.333 0 92.5 -12.5 117.5 -37.5
s37.5 -60.5 37.5 -106.5c0 -12 -1.33301 -28.333 -4 -49s-6.66699 -41.334 -12 -62.001l-89 -370c-6.66699 -28 -12.167 -54.167 -16.5 -78.5s-6.5 -42.833 -6.5 -55.5c0 -44.667 9.66699 -80 29 -106s50 -39 92 -39c42.667 0 86.5 11.167 131.5 33.5
s90.167 56.166 135.5 101.499l175 753l174 12l12 -15l-149 -644c-6.66699 -27.333 -12.667 -54.833 -18 -82.5s-8 -47.167 -8 -58.5c0 -38 8.16699 -63.833 24.5 -77.5s43.5 -20.5 81.5 -20.5c12.667 0 30.667 2 54 6s41.333 8.33301 54 13l-15 -64
c-55.333 -22.667 -101.5 -39.667 -138.5 -51s-71.167 -17 -102.5 -17c-54 0 -94.167 15.667 -120.5 47s-39.5 68 -39.5 110zM850.002 1142l-40 -32c-91.333 76.667 -153.666 128 -186.999 154s-67 53.667 -101 83c-20.667 18.667 -35.834 35 -45.501 49s-14.5 32 -14.5 54
c0 23.333 7.83301 43.833 23.5 61.5s37.5 26.5 65.5 26.5c26 0 46.667 -6.66699 62 -20s32.333 -36 51 -68l78 -130z" />
    <glyph glyph-name="uacute" unicode="&#xfa;" horiz-adv-x="1178" 
d="M707 140l-5.99805 0.000976562l-88 -68c-28 -20.667 -55.667 -38 -83 -52c-32 -16 -61 -27.5 -87 -34.5s-60 -10.5 -102 -10.5c-64 0 -113.667 18.5 -149 55.5s-53 85.5 -53 145.5c0 16 1.33301 35 4 57s9 54.667 19 98l78 317c6.66699 29.333 12.167 55.333 16.5 78
s6.5 44.334 6.5 65.001c0 37.333 -6.16699 62.166 -18.5 74.499s-37.5 18.5 -75.5 18.5c-14.667 0 -33.334 -2.66699 -56.001 -8s-40.334 -9.66602 -53.001 -12.999l15 64c52 23.333 97.833 41 137.5 53s71.5 18 95.5 18c53.333 0 92.5 -12.5 117.5 -37.5
s37.5 -60.5 37.5 -106.5c0 -12 -1.33301 -28.333 -4 -49s-6.66699 -41.334 -12 -62.001l-89 -370c-6.66699 -28 -12.167 -54.167 -16.5 -78.5s-6.5 -42.833 -6.5 -55.5c0 -44.667 9.66699 -80 29 -106s50 -39 92 -39c42.667 0 86.5 11.167 131.5 33.5
s90.167 56.166 135.5 101.499l175 753l174 12l12 -15l-149 -644c-6.66699 -27.333 -12.667 -54.833 -18 -82.5s-8 -47.167 -8 -58.5c0 -38 8.16699 -63.833 24.5 -77.5s43.5 -20.5 81.5 -20.5c12.667 0 30.667 2 54 6s41.333 8.33301 54 13l-15 -64
c-55.333 -22.667 -101.5 -39.667 -138.5 -51s-71.167 -17 -102.5 -17c-54 0 -94.167 15.667 -120.5 47s-39.5 68 -39.5 110zM964.002 1466c0 -26.667 -6.33301 -48.166 -19 -64.499s-32 -34.5 -58 -54.5l-121.5 -89l-201.5 -148l-36 32c66 88 111.833 150.333 137.5 187
l82.5 121c23.333 36 45.833 59.667 67.5 71s45.167 17 70.5 17c22 0 40.5 -7.33301 55.5 -22s22.5 -31.334 22.5 -50.001z" />
    <glyph glyph-name="ucircumflex" unicode="&#xfb;" horiz-adv-x="1178" 
d="M707 140l-5.99805 0.000976562l-88 -68c-28 -20.667 -55.667 -38 -83 -52c-32 -16 -61 -27.5 -87 -34.5s-60 -10.5 -102 -10.5c-64 0 -113.667 18.5 -149 55.5s-53 85.5 -53 145.5c0 16 1.33301 35 4 57s9 54.667 19 98l78 317c6.66699 29.333 12.167 55.333 16.5 78
s6.5 44.334 6.5 65.001c0 37.333 -6.16699 62.166 -18.5 74.499s-37.5 18.5 -75.5 18.5c-14.667 0 -33.334 -2.66699 -56.001 -8s-40.334 -9.66602 -53.001 -12.999l15 64c52 23.333 97.833 41 137.5 53s71.5 18 95.5 18c53.333 0 92.5 -12.5 117.5 -37.5
s37.5 -60.5 37.5 -106.5c0 -12 -1.33301 -28.333 -4 -49s-6.66699 -41.334 -12 -62.001l-89 -370c-6.66699 -28 -12.167 -54.167 -16.5 -78.5s-6.5 -42.833 -6.5 -55.5c0 -44.667 9.66699 -80 29 -106s50 -39 92 -39c42.667 0 86.5 11.167 131.5 33.5
s90.167 56.166 135.5 101.499l175 753l174 12l12 -15l-149 -644c-6.66699 -27.333 -12.667 -54.833 -18 -82.5s-8 -47.167 -8 -58.5c0 -38 8.16699 -63.833 24.5 -77.5s43.5 -20.5 81.5 -20.5c12.667 0 30.667 2 54 6s41.333 8.33301 54 13l-15 -64
c-55.333 -22.667 -101.5 -39.667 -138.5 -51s-71.167 -17 -102.5 -17c-54 0 -94.167 15.667 -120.5 47s-39.5 68 -39.5 110zM994.002 1150l-49 -31.999l-224 273l-330 -273l-47 32l303 347c12.667 15.333 25.5 26.666 38.5 33.999s32.5 11 58.5 11
c25.333 0 43 -3.5 53 -10.5s18.333 -17.167 25 -30.5z" />
    <glyph glyph-name="udieresis" unicode="&#xfc;" horiz-adv-x="1178" 
d="M707 140l-5.99805 0.000976562l-88 -68c-28 -20.667 -55.667 -38 -83 -52c-32 -16 -61 -27.5 -87 -34.5s-60 -10.5 -102 -10.5c-64 0 -113.667 18.5 -149 55.5s-53 85.5 -53 145.5c0 16 1.33301 35 4 57s9 54.667 19 98l78 317c6.66699 29.333 12.167 55.333 16.5 78
s6.5 44.334 6.5 65.001c0 37.333 -6.16699 62.166 -18.5 74.499s-37.5 18.5 -75.5 18.5c-14.667 0 -33.334 -2.66699 -56.001 -8s-40.334 -9.66602 -53.001 -12.999l15 64c52 23.333 97.833 41 137.5 53s71.5 18 95.5 18c53.333 0 92.5 -12.5 117.5 -37.5
s37.5 -60.5 37.5 -106.5c0 -12 -1.33301 -28.333 -4 -49s-6.66699 -41.334 -12 -62.001l-89 -370c-6.66699 -28 -12.167 -54.167 -16.5 -78.5s-6.5 -42.833 -6.5 -55.5c0 -44.667 9.66699 -80 29 -106s50 -39 92 -39c42.667 0 86.5 11.167 131.5 33.5
s90.167 56.166 135.5 101.499l175 753l174 12l12 -15l-149 -644c-6.66699 -27.333 -12.667 -54.833 -18 -82.5s-8 -47.167 -8 -58.5c0 -38 8.16699 -63.833 24.5 -77.5s43.5 -20.5 81.5 -20.5c12.667 0 30.667 2 54 6s41.333 8.33301 54 13l-15 -64
c-55.333 -22.667 -101.5 -39.667 -138.5 -51s-71.167 -17 -102.5 -17c-54 0 -94.167 15.667 -120.5 47s-39.5 68 -39.5 110zM1029 1364c0 -34 -11.5 -63 -34.5 -87s-50.833 -36 -83.5 -36s-60.5 12 -83.5 36s-34.5 53 -34.5 87s11.5 63 34.5 87s50.833 36 83.5 36
s60.5 -12 83.5 -36s34.5 -53 34.5 -87zM599.002 1364c0 -34 -11.5 -63 -34.5 -87s-50.833 -36 -83.5 -36s-60.5 12 -83.5 36s-34.5 53 -34.5 87s11.5 63 34.5 87s50.833 36 83.5 36s60.5 -12 83.5 -36s34.5 -53 34.5 -87z" />
    <glyph glyph-name="yacute" unicode="&#xfd;" horiz-adv-x="1146" 
d="M717 145l-5.99902 -0.000976562c-61.333 -51.333 -119.666 -91.666 -174.999 -120.999s-118.333 -44 -189 -44c-64 0 -114.667 18.5 -152 55.5s-56 85.5 -56 145.5c0 16 1.33301 35 4 57s9 54.667 19 98l78 312c7.33301 30 13 56.167 17 78.5s6 43.833 6 64.5
c0 37.333 -6.16699 62.166 -18.5 74.499s-37.5 18.5 -75.5 18.5c-14.667 0 -33.334 -2.66699 -56.001 -8s-40.334 -9.66602 -53.001 -12.999l15 64c52 23.333 97.833 41 137.5 53s71.5 18 95.5 18c53.333 0 92.833 -12 118.5 -36s38.5 -60 38.5 -108
c0 -12 -1.33301 -28.333 -4 -49s-6.66699 -41.334 -12 -62.001l-91 -365c-6.66699 -28 -12.334 -54.167 -17.001 -78.5s-7 -42.833 -7 -55.5c0 -44.667 10.833 -80 32.5 -106s53.5 -39 95.5 -39c48.667 0 96.167 12 142.5 36s89.833 57 130.5 99l166 748l173 12l12 -15
l-172 -783c-25.333 -114.667 -57.666 -212.667 -96.999 -294s-85.333 -147 -138 -197c-55.333 -52.667 -115 -90.667 -179 -114s-137 -35 -219 -35c-56.667 0 -101.667 4 -135 12s-59.666 19 -78.999 33c-19.333 13.333 -32.333 28.333 -39 45s-10 33.334 -10 50.001
c0 28.667 8.66699 54 26 76s42.333 33 75 33c24.667 0 45.667 -7 63 -21s31.333 -29.333 42 -46c12 -18 23 -38.333 33 -61l24 -54h24c38 0 78.167 9.33301 120.5 28s81.166 47.667 116.499 87c38 42.667 72.167 97.667 102.5 165s54.5 148 72.5 242zM948.001 1466
c0 -26.667 -6.33301 -48.166 -19 -64.499s-32 -34.5 -58 -54.5l-121.5 -89l-201.5 -148l-36 32c66 88 111.833 150.333 137.5 187l82.5 121c23.333 36 45.833 59.667 67.5 71s45.167 17 70.5 17c22 0 40.5 -7.33301 55.5 -22s22.5 -31.334 22.5 -50.001z" />
    <glyph glyph-name="thorn" unicode="&#xfe;" horiz-adv-x="1132" 
d="M1062 627c0 -89.333 -15.667 -173.999 -47 -253.999s-73 -149.333 -125 -208c-58 -64.667 -120.833 -112.667 -188.5 -144s-137.167 -47 -208.5 -47c-57.333 0 -104.333 7 -141 21s-69.334 31.333 -98.001 52l-58 -262c-4 -16.667 -7.16699 -32.334 -9.5 -47.001
s-3.5 -26.334 -3.5 -35.001c0 -18 6.5 -32.333 19.5 -43s27.833 -18.334 44.5 -23.001c16.667 -5.33301 35.334 -9.33301 56.001 -12s39.334 -4.66699 56.001 -6l-14 -63h-551l14 63c21.333 1.33301 41.333 3 60 5s36.334 5.33301 53.001 10
c20.667 6 37.167 17.167 49.5 33.5s21.166 36.5 26.499 60.5l354 1559l9 42.5c2 9.66699 3 19.834 3 30.501c0 24 -4 42.5 -12 55.5s-19.333 22.833 -34 29.5c-14 6 -31.667 10 -53 12s-43 4.33301 -65 7l14 61l371 23l10 -15l-153 -665h5
c42 40.667 88.833 74.334 140.5 101.001s103.167 40 154.5 40c101.333 0 180.166 -34.5 236.499 -103.5s84.5 -161.833 84.5 -278.5zM856 622.001c0 35.333 -3.16699 70.8311 -9.5 106.498s-16.5 65.167 -30.5 88.5c-14.667 26 -34.667 46.167 -60 60.5
s-58.666 21.5 -99.999 21.5c-30.667 0 -64.5 -9.33301 -101.5 -28s-82.167 -53.667 -135.5 -105l-128 -567c4.66699 -38 25.167 -73.5 61.5 -106.5s80.166 -49.5 131.499 -49.5c52.667 0 102 15.333 148 46s85.333 72.334 118 125.001
c34 54.667 60.167 116.834 78.5 186.501s27.5 143.5 27.5 221.5z" />
    <glyph glyph-name="ydieresis" unicode="&#xff;" horiz-adv-x="1146" 
d="M717 145l-5.99902 -0.000976562c-61.333 -51.333 -119.666 -91.666 -174.999 -120.999s-118.333 -44 -189 -44c-64 0 -114.667 18.5 -152 55.5s-56 85.5 -56 145.5c0 16 1.33301 35 4 57s9 54.667 19 98l78 312c7.33301 30 13 56.167 17 78.5s6 43.833 6 64.5
c0 37.333 -6.16699 62.166 -18.5 74.499s-37.5 18.5 -75.5 18.5c-14.667 0 -33.334 -2.66699 -56.001 -8s-40.334 -9.66602 -53.001 -12.999l15 64c52 23.333 97.833 41 137.5 53s71.5 18 95.5 18c53.333 0 92.833 -12 118.5 -36s38.5 -60 38.5 -108
c0 -12 -1.33301 -28.333 -4 -49s-6.66699 -41.334 -12 -62.001l-91 -365c-6.66699 -28 -12.334 -54.167 -17.001 -78.5s-7 -42.833 -7 -55.5c0 -44.667 10.833 -80 32.5 -106s53.5 -39 95.5 -39c48.667 0 96.167 12 142.5 36s89.833 57 130.5 99l166 748l173 12l12 -15
l-172 -783c-25.333 -114.667 -57.666 -212.667 -96.999 -294s-85.333 -147 -138 -197c-55.333 -52.667 -115 -90.667 -179 -114s-137 -35 -219 -35c-56.667 0 -101.667 4 -135 12s-59.666 19 -78.999 33c-19.333 13.333 -32.333 28.333 -39 45s-10 33.334 -10 50.001
c0 28.667 8.66699 54 26 76s42.333 33 75 33c24.667 0 45.667 -7 63 -21s31.333 -29.333 42 -46c12 -18 23 -38.333 33 -61l24 -54h24c38 0 78.167 9.33301 120.5 28s81.166 47.667 116.499 87c38 42.667 72.167 97.667 102.5 165s54.5 148 72.5 242zM1034 1364
c0 -34 -11.5 -63 -34.5 -87s-50.833 -36 -83.5 -36s-60.5 12 -83.5 36s-34.5 53 -34.5 87s11.5 63 34.5 87s50.833 36 83.5 36s60.5 -12 83.5 -36s34.5 -53 34.5 -87zM604.001 1364c0 -34 -11.5 -63 -34.5 -87s-50.833 -36 -83.5 -36s-60.5 12 -83.5 36s-34.5 53 -34.5 87
s11.5 63 34.5 87s50.833 36 83.5 36s60.5 -12 83.5 -36s34.5 -53 34.5 -87z" />
    <glyph glyph-name="Amacron" unicode="&#x100;" horiz-adv-x="1374" 
d="M875 576l-89 554l-340 -554h429zM722 0l14.998 65.999c20.667 2 44.834 4.83301 72.501 8.5s49.167 7.83398 64.5 12.501c20.667 6.66699 36.167 13.667 46.5 21s15.5 18.666 15.5 33.999c0 5.33301 -4 38 -12 98l-34 253h-498c-22 -34.667 -45.333 -74.834 -70 -120.501
l-57 -104.5c-12 -21.333 -23.5 -45.166 -34.5 -71.499s-16.5 -43.833 -16.5 -52.5c0 -22 17.667 -39.667 53 -53s79.666 -21.666 132.999 -24.999l-15 -66h-545l15 66c17.333 1.33301 39.833 5.16602 67.5 11.499s50.834 14.833 69.501 25.5
c23.333 13.333 45.833 29.833 67.5 49.5s44.834 49.167 69.501 88.5l379.5 610l363.5 588h80l189 -1229c4 -24.667 10.667 -45.5 20 -62.5s23.333 -32.833 42 -47.5c13.333 -9.33301 31.333 -17.166 54 -23.499s42.667 -9.83301 60 -10.5l-15 -66h-580zM1278 1783l-28 -123
h-686l28 123h686z" />
    <glyph glyph-name="amacron" unicode="&#x101;" horiz-adv-x="1173" 
d="M696 132l-7.00195 0.00195312c-14.667 -12 -32.167 -27.167 -52.5 -45.5s-44.166 -35.833 -71.499 -52.5c-26 -16.667 -54.333 -31.167 -85 -43.5s-64 -18.5 -100 -18.5c-96.667 0 -172.5 34.667 -227.5 104s-82.5 164 -82.5 284c0 82.667 15.333 163 46 241
s73 148 127 210c51.333 59.333 112.333 107.166 183 143.499s143.334 54.5 218.001 54.5c47.333 0 92.5 -6.33301 135.5 -19s76.833 -27 101.5 -43l183 47l12 -15l-152 -645c-5.33301 -20.667 -10.833 -45.834 -16.5 -75.501s-8.5 -51.5 -8.5 -65.5c0 -38 8 -63.667 24 -77
s43 -20 81 -20c12.667 0 30.667 2 54 6s41.333 8.33301 54 13l-15 -64c-60 -24 -104.667 -41.333 -134 -52s-65 -16 -107 -16c-48 0 -86 14 -114 42s-43.333 63.667 -46 107zM838.998 764.002c0 22 -2.33398 43 -7.00098 63s-14.334 38.667 -29.001 56
c-13.333 16.667 -31.666 30 -54.999 40s-52.666 15 -87.999 15c-48.667 0 -96 -16 -142 -48s-87.333 -75 -124 -129c-34.667 -50.667 -63 -112 -85 -184s-33 -145 -33 -219c0 -40.667 2.33301 -76.667 7 -108s13.667 -60 27 -86c12.667 -25.333 31 -45 55 -59
s54.333 -21 91 -21c37.333 0 76.5 10.5 117.5 31.5s87.167 57.833 138.5 110.5zM1070 1419l-28 -123h-686l28 123h686z" />
    <glyph glyph-name="Abreve" unicode="&#x102;" horiz-adv-x="1374" 
d="M875 576l-89 554l-340 -554h429zM722 0l14.998 65.999c20.667 2 44.834 4.83301 72.501 8.5s49.167 7.83398 64.5 12.501c20.667 6.66699 36.167 13.667 46.5 21s15.5 18.666 15.5 33.999c0 5.33301 -4 38 -12 98l-34 253h-498c-22 -34.667 -45.333 -74.834 -70 -120.501
l-57 -104.5c-12 -21.333 -23.5 -45.166 -34.5 -71.499s-16.5 -43.833 -16.5 -52.5c0 -22 17.667 -39.667 53 -53s79.666 -21.666 132.999 -24.999l-15 -66h-545l15 66c17.333 1.33301 39.833 5.16602 67.5 11.499s50.834 14.833 69.501 25.5
c23.333 13.333 45.833 29.833 67.5 49.5s44.834 49.167 69.501 88.5l379.5 610l363.5 588h80l189 -1229c4 -24.667 10.667 -45.5 20 -62.5s23.333 -32.833 42 -47.5c13.333 -9.33301 31.333 -17.166 54 -23.499s42.667 -9.83301 60 -10.5l-15 -66h-580zM1289 1851
c-38.667 -107.333 -88.834 -187.667 -150.501 -241s-137.5 -80 -227.5 -80c-85.333 0 -149.666 25 -192.999 75s-65 123.667 -65 221v12.5v12.5l56 16c10 -67.333 32.333 -116 67 -146s88.667 -45 162 -45c80.667 0 142.5 17.333 185.5 52s80.167 81 111.5 139z" />
    <glyph glyph-name="abreve" unicode="&#x103;" horiz-adv-x="1173" 
d="M696 132l-7.00195 0.00195312c-14.667 -12 -32.167 -27.167 -52.5 -45.5s-44.166 -35.833 -71.499 -52.5c-26 -16.667 -54.333 -31.167 -85 -43.5s-64 -18.5 -100 -18.5c-96.667 0 -172.5 34.667 -227.5 104s-82.5 164 -82.5 284c0 82.667 15.333 163 46 241
s73 148 127 210c51.333 59.333 112.333 107.166 183 143.499s143.334 54.5 218.001 54.5c47.333 0 92.5 -6.33301 135.5 -19s76.833 -27 101.5 -43l183 47l12 -15l-152 -645c-5.33301 -20.667 -10.833 -45.834 -16.5 -75.501s-8.5 -51.5 -8.5 -65.5c0 -38 8 -63.667 24 -77
s43 -20 81 -20c12.667 0 30.667 2 54 6s41.333 8.33301 54 13l-15 -64c-60 -24 -104.667 -41.333 -134 -52s-65 -16 -107 -16c-48 0 -86 14 -114 42s-43.333 63.667 -46 107zM838.998 764.002c0 22 -2.33398 43 -7.00098 63s-14.334 38.667 -29.001 56
c-13.333 16.667 -31.666 30 -54.999 40s-52.666 15 -87.999 15c-48.667 0 -96 -16 -142 -48s-87.333 -75 -124 -129c-34.667 -50.667 -63 -112 -85 -184s-33 -145 -33 -219c0 -40.667 2.33301 -76.667 7 -108s13.667 -60 27 -86c12.667 -25.333 31 -45 55 -59
s54.333 -21 91 -21c37.333 0 76.5 10.5 117.5 31.5s87.167 57.833 138.5 110.5zM1027 1495c-40 -121.333 -90.5 -213 -151.5 -275s-136.5 -93 -226.5 -93c-84.667 0 -147.334 28.667 -188.001 86s-61 140.666 -61 249.999c0 4.66699 0.166992 9.83398 0.5 15.501
s0.5 11.167 0.5 16.5l52 12c4.66699 -34.667 10.5 -65 17.5 -91s18.833 -50 35.5 -72c16 -21.333 36.333 -37.833 61 -49.5s59.334 -17.5 104.001 -17.5c72 0 130.667 18.833 176 56.5s86 95.5 122 173.5z" />
    <glyph glyph-name="Aogonek" unicode="&#x104;" horiz-adv-x="1374" 
d="M875 576l-89 554l-340 -554h429zM722 0l14.998 66c20.667 2 44.834 4.83301 72.501 8.5s49.167 7.83398 64.5 12.501c20.667 6.66699 36.167 13.667 46.5 21s15.5 18.666 15.5 33.999c0 5.33301 -4 38 -12 98l-34 253h-498c-22 -34.667 -45.333 -74.834 -70 -120.501
l-57 -104.5c-12 -21.333 -23.5 -45.166 -34.5 -71.499s-16.5 -43.833 -16.5 -52.5c0 -22 17.667 -39.667 53 -53s79.666 -21.666 132.999 -24.999l-15 -66h-545l15 66c17.333 1.33301 39.833 5.16602 67.5 11.499s50.834 14.833 69.501 25.5
c23.333 13.333 45.833 29.833 67.5 49.5s44.834 49.167 69.501 88.5l379.5 610l363.5 588h80l189 -1229c4 -24.667 10.667 -45.5 20 -62.5s23.333 -32.833 42 -47.5c13.333 -9.33301 31.333 -17.166 54 -23.499s42.667 -9.83301 60 -10.5l-15 -66h-164
c-36 -29.333 -68.167 -66.833 -96.5 -112.5s-42.5 -93.834 -42.5 -144.501c0 -36.667 14 -65 42 -85s81.667 -30 161 -30l-13 -72h-115c-77.333 0 -136 14 -176 42s-60 66.667 -60 116c0 48 17.833 95.833 53.5 143.5s91.5 95.167 167.5 142.5h-337z" />
    <glyph glyph-name="aogonek" unicode="&#x105;" horiz-adv-x="1173" 
d="M696 132l-7.00293 0.00195312c-14.667 -12 -32.167 -27.167 -52.5 -45.5s-44.166 -35.833 -71.499 -52.5c-26 -16.667 -54.333 -31.167 -85 -43.5s-64 -18.5 -100 -18.5c-96.667 0 -172.5 34.667 -227.5 104s-82.5 164 -82.5 284c0 82.667 15.333 163 46 241
s73 148 127 210c51.333 59.333 112.333 107.166 183 143.499s143.334 54.5 218.001 54.5c47.333 0 92.5 -6.33301 135.5 -19s76.833 -27 101.5 -43l183 47l12 -15l-152 -645c-5.33301 -20.667 -10.833 -45.834 -16.5 -75.501s-8.5 -51.5 -8.5 -65.5c0 -38 8 -63.667 24 -77
s43 -20 81 -20c12.667 0 30.667 2 54 6s41.333 8.33301 54 13l-15 -64c-60 -24 -104.667 -41.333 -134 -52s-65 -16 -107 -16h-5.5h-5.5c-27.333 -23.333 -54.166 -56.5 -80.499 -99.5s-39.5 -89.833 -39.5 -140.5c0 -36.667 14 -65 42 -85s81.667 -30 161 -30l-13 -72h-115
c-77.333 0 -136 14 -176 42s-60 66.667 -60 116c0 48 17.333 95.333 52 142s89.667 94 165 142c-29.333 14 -50.333 32.333 -63 55s-20 49 -22 79zM838.997 764.002c0 22 -2.33398 43 -7.00098 63s-14.334 38.667 -29.001 56c-13.333 16.667 -31.666 30 -54.999 40
s-52.666 15 -87.999 15c-48.667 0 -96 -16 -142 -48s-87.333 -75 -124 -129c-34.667 -50.667 -63 -112 -85 -184s-33 -145 -33 -219c0 -40.667 2.33301 -76.667 7 -108s13.667 -60 27 -86c12.667 -25.333 31 -45 55 -59s54.333 -21 91 -21c37.333 0 76.5 10.5 117.5 31.5
s87.167 57.833 138.5 110.5z" />
    <glyph glyph-name="Cacute" unicode="&#x106;" horiz-adv-x="1315" 
d="M631 -33c-72.667 0 -141.331 12.666 -205.998 37.999s-121 62.333 -169 111c-48.667 49.333 -86.834 109 -114.501 179s-41.5 149 -41.5 237c0 126 21.333 243.667 64 353s101.334 207 176.001 293c72 82.667 158.5 149 259.5 199s206.5 75 316.5 75
c83.333 0 156.5 -9.66699 219.5 -29s114.833 -43.333 155.5 -72l56 68h80l-108 -506h-82v40c0 54.667 -4.33301 106.834 -13 156.501s-25.334 94.5 -50.001 134.5c-24 38.667 -56.833 69.5 -98.5 92.5s-94.834 34.5 -159.501 34.5c-82 0 -158.167 -21.833 -228.5 -65.5
s-131.166 -101.834 -182.499 -174.501c-50.667 -70.667 -91.334 -157.667 -122.001 -261s-46 -208.666 -46 -315.999c0 -142 34.833 -257.167 104.5 -345.5s163.167 -132.5 280.5 -132.5c98 0 188.167 29 270.5 87s149.5 135.667 201.5 233l72 -38
c-84 -143.333 -177.667 -244.333 -281 -303s-221.333 -88 -354 -88zM1203 1796c0 -30 -9.33105 -54.166 -27.998 -72.499s-43.334 -34.833 -74.001 -49.5l-142 -65.5l-219 -101.5l-27 39l161 145.5l121 117.5c25.333 25.333 47.666 41.5 66.999 48.5s38.333 10.5 57 10.5
c24 0 44 -6.83301 60 -20.5s24 -30.834 24 -51.501z" />
    <glyph glyph-name="cacute" unicode="&#x107;" horiz-adv-x="929" 
d="M445 -28c-116.667 0 -208.834 34.002 -276.501 102.002s-101.5 164.667 -101.5 290c0 83.333 12.833 163.166 38.5 239.499s61.5 144.166 107.5 203.499s104.167 107.833 174.5 145.5s148.5 56.5 234.5 56.5c95.333 0 167.833 -20.167 217.5 -60.5
s74.5 -91.166 74.5 -152.499c0 -46 -10.833 -86.333 -32.5 -121s-54.167 -52 -97.5 -52c-36 0 -63 9 -81 27s-27 38 -27 60c0 21.333 7.33301 50.5 22 87.5l35 89.5c-7.33301 18 -23.666 31.167 -48.999 39.5s-51.666 12.5 -78.999 12.5
c-90.667 0 -168.834 -52.833 -234.501 -158.5s-98.5 -235.167 -98.5 -388.5c0 -94.667 21.167 -169.834 63.5 -225.501s99.5 -83.5 171.5 -83.5c64.667 0 122.167 17.333 172.5 52s98.5 83.667 144.5 147l57 -42c-46 -72.667 -108.5 -135.5 -187.5 -188.5
s-161.833 -79.5 -248.5 -79.5zM878 1466c0 -26.667 -6.33301 -48.166 -19 -64.499s-32 -34.5 -58 -54.5l-121.5 -89l-201.5 -148l-36 32c66 88 111.833 150.333 137.5 187l82.5 121c23.333 36 45.833 59.667 67.5 71s45.167 17 70.5 17c22 0 40.5 -7.33301 55.5 -22
s22.5 -31.334 22.5 -50.001z" />
    <glyph glyph-name="Ccircumflex" unicode="&#x108;" horiz-adv-x="1315" 
d="M631 -33c-72.667 0 -141.331 12.666 -205.998 37.999s-121 62.333 -169 111c-48.667 49.333 -86.834 109 -114.501 179s-41.5 149 -41.5 237c0 126 21.333 243.667 64 353s101.334 207 176.001 293c72 82.667 158.5 149 259.5 199s206.5 75 316.5 75
c83.333 0 156.5 -9.66699 219.5 -29s114.833 -43.333 155.5 -72l56 68h80l-108 -506h-82v40c0 54.667 -4.33301 106.834 -13 156.501s-25.334 94.5 -50.001 134.5c-24 38.667 -56.833 69.5 -98.5 92.5s-94.834 34.5 -159.501 34.5c-82 0 -158.167 -21.833 -228.5 -65.5
s-131.166 -101.834 -182.499 -174.501c-50.667 -70.667 -91.334 -157.667 -122.001 -261s-46 -208.666 -46 -315.999c0 -142 34.833 -257.167 104.5 -345.5s163.167 -132.5 280.5 -132.5c98 0 188.167 29 270.5 87s149.5 135.667 201.5 233l72 -38
c-84 -143.333 -177.667 -244.333 -281 -303s-221.333 -88 -354 -88zM1234 1539l-49 -32l-234 212l-320 -212l-47 32l290 284c12.667 12 26.167 22.5 40.5 31.5s34.5 13.5 60.5 13.5c28 0 46.833 -4.5 56.5 -13.5s17.167 -18.167 22.5 -27.5z" />
    <glyph glyph-name="ccircumflex" unicode="&#x109;" horiz-adv-x="929" 
d="M445 -28c-116.667 0 -208.834 34.002 -276.501 102.002s-101.5 164.667 -101.5 290c0 83.333 12.833 163.166 38.5 239.499s61.5 144.166 107.5 203.499s104.167 107.833 174.5 145.5s148.5 56.5 234.5 56.5c95.333 0 167.833 -20.167 217.5 -60.5
s74.5 -91.166 74.5 -152.499c0 -46 -10.833 -86.333 -32.5 -121s-54.167 -52 -97.5 -52c-36 0 -63 9 -81 27s-27 38 -27 60c0 21.333 7.33301 50.5 22 87.5l35 89.5c-7.33301 18 -23.666 31.167 -48.999 39.5s-51.666 12.5 -78.999 12.5
c-90.667 0 -168.834 -52.833 -234.501 -158.5s-98.5 -235.167 -98.5 -388.5c0 -94.667 21.167 -169.834 63.5 -225.501s99.5 -83.5 171.5 -83.5c64.667 0 122.167 17.333 172.5 52s98.5 83.667 144.5 147l57 -42c-46 -72.667 -108.5 -135.5 -187.5 -188.5
s-161.833 -79.5 -248.5 -79.5zM912 1150l-49 -31.999l-224 273l-330 -273l-47 32l303 347c12.667 15.333 25.5 26.666 38.5 33.999s32.5 11 58.5 11c25.333 0 43 -3.5 53 -10.5s18.333 -17.167 25 -30.5z" />
    <glyph glyph-name="Cdotaccent" unicode="&#x10a;" horiz-adv-x="1315" 
d="M631 -33c-72.667 0 -141.331 12.666 -205.998 37.999s-121 62.333 -169 111c-48.667 49.333 -86.834 109 -114.501 179s-41.5 149 -41.5 237c0 126 21.333 243.667 64 353s101.334 207 176.001 293c72 82.667 158.5 149 259.5 199s206.5 75 316.5 75
c83.333 0 156.5 -9.66699 219.5 -29s114.833 -43.333 155.5 -72l56 68h80l-108 -506h-82v40c0 54.667 -4.33301 106.834 -13 156.501s-25.334 94.5 -50.001 134.5c-24 38.667 -56.833 69.5 -98.5 92.5s-94.834 34.5 -159.501 34.5c-82 0 -158.167 -21.833 -228.5 -65.5
s-131.166 -101.834 -182.499 -174.501c-50.667 -70.667 -91.334 -157.667 -122.001 -261s-46 -208.666 -46 -315.999c0 -142 34.833 -257.167 104.5 -345.5s163.167 -132.5 280.5 -132.5c98 0 188.167 29 270.5 87s149.5 135.667 201.5 233l72 -38
c-84 -143.333 -177.667 -244.333 -281 -303s-221.333 -88 -354 -88zM1046 1738c0 -38 -12.5 -70.834 -37.5 -98.501s-55.833 -41.5 -92.5 -41.5c-34 0 -63.5 13 -88.5 39s-37.5 56.667 -37.5 92c0 36.667 12.5 68.334 37.5 95.001s54.5 40 88.5 40
c38 0 69.167 -12.5 93.5 -37.5s36.5 -54.5 36.5 -88.5z" />
    <glyph glyph-name="cdotaccent" unicode="&#x10b;" horiz-adv-x="929" 
d="M445 -28c-116.667 0 -208.834 34.002 -276.501 102.002s-101.5 164.667 -101.5 290c0 83.333 12.833 163.166 38.5 239.499s61.5 144.166 107.5 203.499s104.167 107.833 174.5 145.5s148.5 56.5 234.5 56.5c95.333 0 167.833 -20.167 217.5 -60.5
s74.5 -91.166 74.5 -152.499c0 -46 -10.833 -86.333 -32.5 -121s-54.167 -52 -97.5 -52c-36 0 -63 9 -81 27s-27 38 -27 60c0 21.333 7.33301 50.5 22 87.5l35 89.5c-7.33301 18 -23.666 31.167 -48.999 39.5s-51.666 12.5 -78.999 12.5
c-90.667 0 -168.834 -52.833 -234.501 -158.5s-98.5 -235.167 -98.5 -388.5c0 -94.667 21.167 -169.834 63.5 -225.501s99.5 -83.5 171.5 -83.5c64.667 0 122.167 17.333 172.5 52s98.5 83.667 144.5 147l57 -42c-46 -72.667 -108.5 -135.5 -187.5 -188.5
s-161.833 -79.5 -248.5 -79.5zM780 1387c0 -38 -12.5 -70.834 -37.5 -98.501s-55.833 -41.5 -92.5 -41.5c-34 0 -63.5 13 -88.5 39s-37.5 56.667 -37.5 92c0 36.667 12.5 68.334 37.5 95.001s54.5 40 88.5 40c38 0 69.167 -12.5 93.5 -37.5s36.5 -54.5 36.5 -88.5z" />
    <glyph glyph-name="Ccaron" unicode="&#x10c;" horiz-adv-x="1315" 
d="M631 -33c-72.667 0 -141.331 12.666 -205.998 37.999s-121 62.333 -169 111c-48.667 49.333 -86.834 109 -114.501 179s-41.5 149 -41.5 237c0 126 21.333 243.667 64 353s101.334 207 176.001 293c72 82.667 158.5 149 259.5 199s206.5 75 316.5 75
c83.333 0 156.5 -9.66699 219.5 -29s114.833 -43.333 155.5 -72l56 68h80l-108 -506h-82v40c0 54.667 -4.33301 106.834 -13 156.501s-25.334 94.5 -50.001 134.5c-24 38.667 -56.833 69.5 -98.5 92.5s-94.834 34.5 -159.501 34.5c-82 0 -158.167 -21.833 -228.5 -65.5
s-131.166 -101.834 -182.499 -174.501c-50.667 -70.667 -91.334 -157.667 -122.001 -261s-46 -208.666 -46 -315.999c0 -142 34.833 -257.167 104.5 -345.5s163.167 -132.5 280.5 -132.5c98 0 188.167 29 270.5 87s149.5 135.667 201.5 233l72 -38
c-84 -143.333 -177.667 -244.333 -281 -303s-221.333 -88 -354 -88zM1308 1837l-290.001 -284.001c-16 -15.333 -28.667 -26.666 -38 -33.999s-30.333 -11 -63 -11c-27.333 0 -45.666 4.33301 -54.999 13s-17.333 18 -24 28l-180 288l49 32l234 -212l320 212z" />
    <glyph glyph-name="ccaron" unicode="&#x10d;" horiz-adv-x="929" 
d="M445 -28c-116.667 0 -208.834 34.002 -276.501 102.002s-101.5 164.667 -101.5 290c0 83.333 12.833 163.166 38.5 239.499s61.5 144.166 107.5 203.499s104.167 107.833 174.5 145.5s148.5 56.5 234.5 56.5c95.333 0 167.833 -20.167 217.5 -60.5
s74.5 -91.166 74.5 -152.499c0 -46 -10.833 -86.333 -32.5 -121s-54.167 -52 -97.5 -52c-36 0 -63 9 -81 27s-27 38 -27 60c0 21.333 7.33301 50.5 22 87.5l35 89.5c-7.33301 18 -23.666 31.167 -48.999 39.5s-51.666 12.5 -78.999 12.5
c-90.667 0 -168.834 -52.833 -234.501 -158.5s-98.5 -235.167 -98.5 -388.5c0 -94.667 21.167 -169.834 63.5 -225.501s99.5 -83.5 171.5 -83.5c64.667 0 122.167 17.333 172.5 52s98.5 83.667 144.5 147l57 -42c-46 -72.667 -108.5 -135.5 -187.5 -188.5
s-161.833 -79.5 -248.5 -79.5zM1013 1510l-303 -347c-16 -18 -28 -30 -36 -36s-28.333 -9 -61 -9c-25.333 0 -42.833 3.33301 -52.5 10s-18.167 17 -25.5 31l-172 351l49 32l224 -273l330 273z" />
    </font>
</defs>
</svg>
