<?xml version="1.0" standalone="no"?>
<!DOCTYPE svg PUBLIC "-//W3C//DTD SVG 1.1//EN" "http://www.w3.org/Graphics/SVG/1.1/DTD/svg11.dtd" >
<svg xmlns="http://www.w3.org/2000/svg">
<metadata>Generated by IcoMoon</metadata>
<defs>
<font id="icones" horiz-adv-x="1024">
<font-face units-per-em="1024" ascent="960" descent="-64" />
<missing-glyph horiz-adv-x="1024" />
<glyph unicode="&#x20;" horiz-adv-x="512" d="" />
<glyph unicode="&#xe900;" glyph-name="biologicas" horiz-adv-x="900" d="M555.098 449.724c0-58.613-44.822-103.434-103.434-103.434s-103.434 44.822-103.434 103.434c0 58.613 44.822 103.434 103.434 103.434 55.165 0 103.434-48.269 103.434-103.434v0zM830.923 398.007c-13.791 17.239-27.582 34.478-44.822 51.717 17.239 17.239 31.030 34.478 44.822 51.717 31.030 41.374 51.717 79.3 62.061 113.778 6.896 27.582 13.791 68.956-6.896 103.434-31.030 48.269-89.643 58.613-134.465 58.613-37.926 0-82.747-6.896-127.569-20.687-3.448 13.791-10.343 31.030-13.791 44.822-17.239 48.269-41.374 86.195-65.508 113.778-31.030 27.582-62.061 44.822-96.539 44.822v0c-41.374 0-72.404-27.582-93.091-48.269-24.135-27.582-44.822-65.508-62.061-113.778-6.896-13.791-10.343-27.582-13.791-41.374-48.269 13.791-89.643 17.239-127.569 17.239-44.822 0-106.882-6.896-134.465-55.165-20.687-34.478-17.239-75.852-6.896-103.434 10.343-34.478 31.030-72.404 62.061-113.778 13.791-17.239 27.582-34.478 44.822-51.717-17.239-17.239-31.030-34.478-44.822-51.717-31.030-41.374-51.717-79.3-62.061-113.778-6.896-27.582-13.791-68.956 6.896-103.434 31.030-48.269 89.643-58.613 134.465-58.613 37.926 0 82.747 6.896 127.569 20.687 3.448-13.791 10.343-31.030 13.791-44.822 17.239-48.269 41.374-86.195 65.508-113.778 27.582-31.030 58.613-48.269 93.091-48.269v0c41.374 0 72.404 24.135 93.091 48.269 24.135 27.582 44.822 65.508 62.061 113.778 3.448 13.791 10.343 27.582 13.791 41.374 44.822-13.791 89.643-20.687 127.569-20.687v0c44.822 0 106.882 10.343 134.465 58.613 20.687 34.478 17.239 75.852 6.896 103.434-6.896 37.926-27.582 75.852-58.613 117.226v0zM748.175 718.653c24.135 0 68.956-3.448 86.195-31.030 17.239-31.030 0-86.195-51.717-151.704-10.343-13.791-24.135-31.030-37.926-44.822-27.582 24.135-58.613 51.717-89.643 75.852-3.448 48.269-10.343 93.091-20.687 134.465 44.822 10.343 82.747 17.239 113.778 17.239v0zM579.232 215.273c0 0 0 0 0 0-24.135 6.896-44.822 17.239-65.508 27.582 17.239 10.343 31.030 17.239 48.269 27.582 10.343 6.896 20.687 13.791 31.030 20.687-3.448-27.582-6.896-51.717-13.791-75.852v0zM530.963 318.707c-27.582-17.239-55.165-31.030-82.747-44.822-27.582 13.791-55.165 31.030-82.747 44.822-24.135 13.791-48.269 31.030-68.956 48.269-3.448 27.582-3.448 55.165-3.448 82.747s0 55.165 3.448 82.747c24.135 17.239 44.822 31.030 68.956 48.269 27.582 17.239 55.165 31.030 82.747 44.822 27.582-13.791 55.165-31.030 82.747-44.822 24.135-13.791 48.269-31.030 68.956-48.269 3.448-27.582 3.448-55.165 3.448-82.747s0-58.613-3.448-86.195c-20.687-13.791-44.822-31.030-68.956-44.822v0zM320.646 215.273c-6.896 24.135-10.343 48.269-13.791 72.404 10.343-6.896 20.687-13.791 31.030-20.687 17.239-10.343 31.030-17.239 48.269-27.582-24.135-6.896-44.822-17.239-65.508-24.135 0 0 0 0 0 0v0zM237.899 411.798c-13.791 13.791-31.030 24.135-44.822 37.926 13.791 13.791 27.582 24.135 41.374 37.926 0-13.791 0-24.135 0-37.926 3.448-13.791 3.448-27.582 3.448-37.926v0zM320.646 684.175c0 0 0-3.448 0 0 24.135-6.896 44.822-17.239 65.508-27.582-17.239-10.343-31.030-17.239-48.269-27.582-10.343-6.896-20.687-13.791-31.030-20.687 3.448 24.135 6.896 51.717 13.791 75.852v0zM579.232 680.727c6.896-24.135 10.343-48.269 13.791-72.404-10.343 6.896-20.687 13.791-31.030 20.687-17.239 10.343-31.030 17.239-48.269 27.582 24.135 10.343 44.822 17.239 65.508 24.135 0 0 0 0 0 0v0zM661.98 487.65c13.791-13.791 31.030-24.135 44.822-37.926-13.791-13.791-27.582-24.135-41.374-37.926 0 13.791 0 24.135 0 37.926-3.448 10.343-3.448 24.135-3.448 37.926v0zM348.229 777.266c27.582 79.3 65.508 124.121 99.987 124.121s72.404-44.822 103.434-120.673c3.448-13.791 10.343-27.582 13.791-41.374-37.926-13.791-75.852-27.582-113.778-48.269-37.926 20.687-79.3 34.478-117.226 48.269 3.448 13.791 6.896 27.582 13.791 37.926v0zM65.508 687.623c17.239 24.135 58.613 31.030 86.195 31.030 31.030 0 72.404-6.896 113.778-17.239-10.343-41.374-17.239-89.643-20.687-137.912-31.030-24.135-62.061-48.269-89.643-72.404-13.791 13.791-27.582 31.030-37.926 44.822-51.717 65.508-72.404 120.673-51.717 151.704v0zM151.704 180.795c-24.135 0-68.956 3.448-86.195 31.030-17.239 31.030 0 86.195 51.717 151.704 10.343 13.791 24.135 31.030 37.926 44.822 27.582-24.135 58.613-51.717 89.643-75.852 3.448-48.269 10.343-93.091 20.687-134.465-44.822-13.791-82.747-17.239-113.778-17.239v0zM551.65 118.734c-27.582-75.852-65.508-124.121-103.434-124.121v0c-34.478 0-72.404 44.822-103.434 120.673-3.448 13.791-10.343 27.582-13.791 41.374 37.926 13.791 75.852 27.582 113.778 48.269 37.926-20.687 79.3-34.478 117.226-48.269 0-13.791-3.448-27.582-10.343-37.926v0zM834.37 208.377c-17.239-27.582-62.061-31.030-86.195-31.030v0c-31.030 0-72.404 6.896-113.778 17.239 10.343 41.374 17.239 89.643 20.687 137.912 31.030 24.135 62.061 48.269 89.643 72.404 13.791-13.791 27.582-31.030 37.926-44.822 51.717-65.508 72.404-120.673 51.717-151.704v0z" />
<glyph unicode="&#xe901;" glyph-name="arrow-b-up" horiz-adv-x="936" d="M935.983 166.381l-463.846 563.241-472.129-563.241z" />
<glyph unicode="&#xe902;" glyph-name="arrow-b-left" horiz-adv-x="584" d="M583.982 933.217l-583.974-480.92 583.974-489.508z" />
<glyph unicode="&#xe903;" glyph-name="arrow-b-right" horiz-adv-x="584" d="M0.008-37.21l583.974 489.508-583.974 480.92z" />
<glyph unicode="&#xe904;" glyph-name="arrow-b-down" horiz-adv-x="936" d="M0.010 729.619l463.846-563.241 472.129 563.241z" />
<glyph unicode="&#xe905;" glyph-name="arrow-c-down" horiz-adv-x="640" d="M256 960v-793.6l-166.4 153.6-89.6-83.2 320-300.8 320 300.8-89.6 83.2-166.4-153.6v793.6z" />
<glyph unicode="&#xe906;" glyph-name="arrow-c-right" horiz-adv-x="1056" d="M16.002 511.997h793.601l-153.601 166.401 83.2 89.6 300.8-320-300.8-320-83.2 89.6 153.601 166.401h-793.601z" />
<glyph unicode="&#xe907;" glyph-name="arrow-c-left" horiz-adv-x="1056" d="M1039.998 511.997h-793.601l153.601 166.401-83.2 89.6-300.8-320 300.8-320 83.2 89.6-153.601 166.401h793.601z" />
<glyph unicode="&#xe908;" glyph-name="arrow-c-up" horiz-adv-x="640" d="M384-64v793.6l166.4-153.6 89.6 83.2-320 300.8-320-300.8 89.6-83.2 166.4 153.6v-793.6z" />
<glyph unicode="&#xe909;" glyph-name="arrow-down" horiz-adv-x="1013" d="M118.311 762.562l388.183-388.183 388.183 388.183 120.471-120.471-508.654-508.654-508.654 508.654 120.471 120.471z" />
<glyph unicode="&#xe90a;" glyph-name="arrow-left" horiz-adv-x="629" d="M629.124 839.529l-388.183-388.183 388.183-388.183-120.471-120.471-508.654 508.654 508.654 508.654 120.471-120.471z" />
<glyph unicode="&#xe90b;" glyph-name="arrow-right" horiz-adv-x="629" d="M0 56.471l388.183 388.183-388.183 394.876 120.471 120.471 508.654-508.654-508.654-508.654-120.471 113.778z" />
<glyph unicode="&#xe90c;" glyph-name="arrow-up" horiz-adv-x="1013" d="M894.689 133.438l-388.183 388.183-388.183-388.183-120.471 120.471 508.654 508.654 508.654-508.654-120.471-120.471z" />
<glyph unicode="&#xe90d;" glyph-name="calendar" horiz-adv-x="999" d="M360.918 397.639c0 16.787-8.393 25.18-25.18 25.18h-83.934c-16.787 0-25.18-8.393-25.18-25.18v-83.934c8.393-8.393 16.787-25.18 33.574-25.18h83.934c16.787 0 25.18 8.393 25.18 25.18v83.934zM562.361 397.639c0 16.787-8.393 25.18-25.18 25.18h-83.934c-16.787 0-25.18-8.393-25.18-25.18v-83.934c8.393-8.393 16.787-25.18 33.574-25.18h83.934c16.787 0 25.18 8.393 25.18 25.18v83.934zM763.803 397.639c0 16.787-8.393 25.18-25.18 25.18h-83.934c-16.787 0-25.18-8.393-25.18-25.18v-83.934c8.393-8.393 16.787-25.18 33.574-25.18h83.934c8.393 0 16.787 16.787 16.787 25.18v83.934zM360.918 196.197c0 8.393-8.393 16.787-25.18 16.787h-83.934c-8.393 0-16.787-8.393-16.787-16.787v-83.934c0-16.787 8.393-25.18 25.18-25.18h83.934c16.787 0 25.18 8.393 25.18 25.18v83.934zM562.361 196.197c0 16.787-8.393 25.18-25.18 25.18h-83.934c-8.393-8.393-16.787-16.787-16.787-25.18v-83.934c0-16.787 8.393-25.18 25.18-25.18h83.934c16.787 0 25.18 8.393 25.18 25.18v83.934zM763.803 196.197c0 8.393-8.393 16.787-16.787 16.787h-83.934c-16.787 0-25.18-8.393-25.18-16.787v-83.934c0-16.787 8.393-25.18 25.18-25.18h83.934c16.787 0 25.18 8.393 25.18 25.18v83.934zM914.885 842.492v-125.902c0-58.754-41.967-100.721-100.721-100.721h-67.148c-58.754 8.393-100.721 50.361-100.721 109.115v117.508h-293.77v-125.902c0-50.361-41.967-92.328-100.721-92.328h-58.754c-58.754 0-100.721 41.967-100.721 100.721v117.508c-50.361 0-92.328-41.967-92.328-83.934v-721.836c0-50.361 41.967-92.328 92.328-92.328h814.164c50.361 0 92.328 41.967 92.328 92.328v721.836c0 41.967-41.967 83.934-83.934 83.934v0zM881.311 78.689c0-25.18-16.787-41.967-41.967-41.967h-679.869c-25.18 0-41.967 16.787-41.967 41.967v369.311c0 25.18 16.787 41.967 41.967 41.967h679.869c25.18 0 41.967-16.787 41.967-41.967v-369.311zM193.049 691.41h58.754c16.787 0 33.574 16.787 33.574 33.574v201.443c0 16.787-16.787 33.574-33.574 33.574h-58.754c-25.18 0-33.574-16.787-33.574-33.574v-201.443c0-25.18 8.393-33.574 33.574-33.574v0zM747.016 691.41h67.148c16.787 0 33.574 16.787 33.574 33.574v201.443c-8.393 16.787-16.787 33.574-41.967 33.574h-58.754c-25.18 0-33.574-16.787-33.574-33.574v-201.443c0-25.18 8.393-33.574 33.574-33.574v0z" />
<glyph unicode="&#xe90e;" glyph-name="camera" horiz-adv-x="1264" d="M375.899 370.228c0-142.582 116.658-259.241 259.241-259.241s259.241 116.658 259.241 259.241c0 142.582-116.658 259.241-259.241 259.241-142.582-6.481-259.241-116.658-259.241-259.241v0zM1186.025 804.456h-278.684c-19.443 77.772-38.886 155.544-116.658 155.544h-317.57c-77.772 0-97.215-77.772-116.658-155.544h-278.684c-45.367 0-77.772-38.886-77.772-84.253v-712.911c0-45.367 32.405-77.772 77.772-77.772h1101.772c45.367 0 77.772 32.405 77.772 77.772v712.911c6.481 45.367-32.405 84.253-71.291 84.253v0zM628.658 20.253c-194.43 0-349.975 155.544-349.975 349.975s155.544 349.975 349.975 349.975c194.43 0 349.975-155.544 349.975-349.975s-155.544-349.975-349.975-349.975v0zM1186.025 564.658h-155.544v77.772h155.544v-77.772z" />
<glyph unicode="&#xe90f;" glyph-name="facebook" horiz-adv-x="494" d="M0 621.262h105.125v101.232c0 46.722 0 116.806 35.042 159.635 35.042 46.722 81.764 77.871 163.529 77.871 132.38 0 190.783-19.468 190.783-19.468l-27.255-155.741c0 0-42.829 11.681-85.658 11.681s-77.871-15.574-77.871-54.51v-120.7h167.422l-11.681-151.848h-155.741v-533.414h-198.57v529.521h-105.125v155.741z" />
<glyph unicode="&#xe910;" glyph-name="googleplus" horiz-adv-x="989" d="M323.163-13.384c-120.7 0-210.251 77.871-210.251 171.316 0 89.551 109.019 167.422 229.719 163.529 27.255 0 54.51-3.894 77.871-11.681 66.19-46.722 112.913-70.084 128.487-124.593 3.894-11.681 3.894-23.361 3.894-31.148 3.894-97.338-58.403-167.422-229.719-167.422zM358.205 527.817c-81.764 3.894-159.635 93.445-175.209 198.57-15.574 109.019 38.935 190.783 120.7 186.89s159.635-89.551 175.209-194.677c15.574-109.019-38.935-190.783-120.7-190.783zM525.627 368.183c-27.255 19.468-81.764 70.084-81.764 97.338 0 35.042 7.787 50.616 62.297 89.551 50.616 42.829 89.551 97.338 89.551 167.422 0 81.764-35.042 159.635-101.232 182.996h101.232l66.19 54.51h-315.376c-144.061 0-276.441-109.019-276.441-233.612 0-128.487 97.338-229.719 241.399-229.719 11.681 0 19.468 0 31.148 0-7.787-19.468-15.574-38.935-15.574-58.403 0-35.042 19.468-66.19 42.829-89.551-19.468 0-35.042 0-54.51 0-175.209 0-311.483-112.913-311.483-229.719 0-112.913 147.954-186.89 327.057-186.89 202.464 0 311.483 112.913 311.483 229.719-3.894 93.445-31.148 147.954-116.806 206.357zM988.958 520.030h-124.593v124.593h-101.232v-124.593h-124.593v-101.232h124.593v-120.7h101.232v124.593h124.593v97.338z" />
<glyph unicode="&#xe911;" glyph-name="codigos" horiz-adv-x="1067" d="M167.787 308.76l-80.526-147.629h-87.235c60.394 110.722 120.787 214.732 181.179 308.678s117.432 181.179 174.471 265.063h77.17c6.712-40.265 16.776-83.879 23.485-124.144 6.712-43.619 13.42-87.235 20.132-134.209s13.42-93.945 20.132-147.629c6.712-50.328 13.42-107.367 20.132-167.762h-80.526c-3.353 23.485-6.712 50.328-6.712 73.817-3.353 23.485-3.353 50.328-6.712 73.817h-254.996zM412.718 372.507c-3.353 43.619-10.066 90.591-16.776 134.209s-13.42 90.591-20.132 137.564c-20.132-26.842-43.619-63.75-70.46-107.367-30.2-46.973-63.75-100.656-100.656-164.405h208.024zM738.174 154.417c-10.066 0-23.485 0-36.907 0s-26.842 0-40.265 3.353c-13.42 0-26.842 3.353-40.265 3.353-13.42 3.353-23.485 3.353-33.551 6.712l134.209 556.964c23.485 6.712 50.328 10.066 77.17 10.066 30.2 6.712 53.684 6.712 77.17 6.712 26.842 0 53.684-3.353 77.17-6.712s43.619-13.42 60.394-23.485c16.776-10.066 30.2-23.485 40.265-40.265s13.42-36.907 13.42-60.394c0-33.551-10.066-63.75-30.2-90.591s-46.973-43.619-83.879-57.037c23.485-10.066 43.619-23.485 57.037-40.265s23.485-40.265 23.485-67.104c0-36.907-6.712-70.46-23.485-97.301s-36.907-46.973-63.75-63.75c-26.842-16.776-57.037-26.842-93.945-33.551-33.551-3.353-73.817-6.712-114.077-6.712v0zM731.464 429.544l-46.973-204.668c6.712 0 16.776-3.353 26.842-3.353 13.42 0 26.842 0 46.973 0s43.619 0 67.104 3.353c23.485 3.353 43.619 10.066 63.75 16.776 20.132 10.066 36.907 23.485 46.973 36.907 13.42 16.776 20.132 40.265 20.132 67.104s-10.066 46.973-30.2 60.394c-20.132 16.776-53.684 23.485-97.301 23.485h-97.301zM744.885 493.293h77.17c16.776 0 36.907 0 57.037 3.353s36.907 10.066 53.684 16.776c16.776 6.712 30.2 20.132 40.265 33.551s16.776 30.2 16.776 53.684c0 26.842-10.066 46.973-30.2 60.394-26.842 10.066-57.037 13.42-100.656 13.42-13.42 0-26.842 0-43.619 0-13.42 0-23.485-3.353-26.842-3.353l-43.619-177.828z" />
<glyph unicode="&#xe912;" glyph-name="exatas" horiz-adv-x="1153" d="M583.57 593.004c-106.097 0-198.046-81.341-212.194-187.445 0-10.614 3.533-21.216 10.614-28.294s17.68-14.147 28.294-14.147h346.585c10.614 0 21.216 3.533 28.294 14.147 7.072 7.072 10.614 17.68 10.614 28.294-14.147 106.097-102.564 187.445-212.194 187.445v0zM459.793 440.932c21.216 45.974 70.737 81.341 123.777 81.341s102.564-31.827 123.777-81.341h-247.569zM1114.070 440.932h-88.417c-28.294 215.733-215.733 385.495-442.084 385.495-222.809 0-410.25-169.754-438.54-385.495h-106.097c-21.216 0-38.908-17.68-38.908-38.908v-297.078c0-21.216 17.68-35.36 38.908-35.36h1075.135c21.216 0 38.908 17.68 38.908 35.36v297.078c0 21.216-17.68 38.908-38.908 38.908v0zM1078.696 143.853h-113.177v70.737h-35.36v-70.737h-116.712v70.737h-31.827v-70.737h-116.712v70.737h-31.827v-70.737h-116.712v70.737h-31.827v-70.737h-116.712v70.737h-28.294v-70.737h-113.177v70.737h-35.36v-70.737h-116.712v222.809h102.564c21.216 0 35.36 14.147 38.908 35.36 0 10.614 0 17.68 3.533 28.294l67.196-10.614c0 3.533 3.533 10.614 7.072 28.294l-67.196 17.68c7.072 35.36 21.216 70.737 42.442 102.564l60.122-31.827c3.533 7.072 7.072 14.147 14.147 24.763l-56.59 35.36c21.216 28.294 45.974 56.59 74.27 77.802l38.908-49.507c7.072 7.072 14.147 10.614 24.763 17.68l-35.36 53.052c31.827 17.68 63.655 31.827 99.032 42.442l14.147-63.655c10.614 3.533 21.216 3.533 28.294 7.072l-10.614 63.655c21.216 3.533 38.908 3.533 60.122 3.533 17.68 0 31.827 0 49.507-3.533l-3.533-60.122c10.614 0 17.68-3.533 28.294-3.533l14.147 63.655c35.36-7.072 70.737-21.216 99.032-38.908l-35.36-56.59c7.072-7.072 17.68-10.614 24.763-17.68l42.442 53.052c31.827-21.216 56.59-45.974 81.341-77.802l-63.655-42.442c7.072-7.072 10.614-17.68 17.68-28.294l67.196 38.908c17.68-31.827 31.827-67.196 42.442-102.564l-70.737-24.763c3.533-14.147 7.072-24.763 10.614-28.294l67.196 17.68c0-10.614 3.533-24.763 3.533-35.36 0-21.216 17.68-35.36 35.36-35.36h84.884v-222.809z" />
<glyph unicode="&#xe913;" glyph-name="humanas" horiz-adv-x="819" d="M0 960v-1024h819.2v1024h-819.2zM480.492 893.046h137.846v-204.8l-66.954 66.954-66.954-66.954v204.8zM169.354 2.954h-102.4v890.092h102.4v-890.092zM752.246 2.954h-512v890.092h169.354v-307.2l137.846 66.954 137.846-66.954v307.2h66.954v-890.092z" />
<glyph unicode="&#xe914;" glyph-name="linkedin" horiz-adv-x="1113" d="M245.421-64h-215.802v693.95h215.802v-693.95zM131.174 718.81v0c-80.397 0-131.174 55.008-131.174 118.479 0 71.934 50.777 122.711 131.174 122.711s131.174-50.777 131.174-118.479c0-67.702-50.777-122.711-131.174-122.711zM1112.86-64h-245.421v359.669c0 93.091-38.083 156.562-122.711 156.562-63.471 0-101.554-42.314-118.479-84.628-4.231-16.926-4.231-33.851-4.231-55.008v-376.595h-245.421c0 0 4.231 638.942 0 693.95h245.421v-110.017c12.694 46.545 93.091 114.248 215.802 114.248 152.331 0 275.041-101.554 275.041-317.355v-380.826z" />
<glyph unicode="&#xe915;" glyph-name="lock" horiz-adv-x="838" d="M816.232 470.261c-14.841 14.841-29.681 22.261-51.942 22.261h-22.261v140.986c0 89.043-29.681 163.246-96.464 230.029-59.362 66.783-133.565 96.464-230.029 96.464s-163.246-29.681-230.029-96.464c-59.362-66.783-89.043-140.986-89.043-230.029v-140.986h-29.681c-22.261 0-37.101-7.42-51.942-22.261-7.42-7.42-14.841-29.681-14.841-44.522v-415.536c0-22.261 7.42-37.101 22.261-51.942s29.681-22.261 51.942-22.261h697.507c22.261 0 37.101 7.42 51.942 22.261s22.261 29.681 22.261 51.942v415.536c-7.42 14.841-14.841 37.101-29.681 44.522v0zM608.464 492.522h-371.014v140.986c0 51.942 14.841 96.464 51.942 133.565s81.623 51.942 126.145 51.942 96.464-14.841 133.565-51.942c37.101-37.101 51.942-81.623 51.942-133.565v-140.986z" />
<glyph unicode="&#xe916;" glyph-name="mail" horiz-adv-x="1363" d="M1280 960h-1196.973c-41.514 0-83.027-41.514-83.027-83.027v-145.297l678.054-269.838 684.973 269.838v145.297c0 41.514-41.514 83.027-83.027 83.027v0zM0 593.297v-567.351c0-48.432 41.514-83.027 83.027-83.027h1190.054c48.432 0 83.027 41.514 83.027 83.027v567.351l-678.054-269.838-678.054 269.838z" />
<glyph unicode="&#xe917;" glyph-name="marker" horiz-adv-x="770" d="M385.174 960c-211.376 0-385.174-173.798-385.174-385.174 0-79.853 23.486-159.706 70.459-225.468l9.394-14.092 277.138-389.872c4.697-9.394 14.092-14.092 23.486-14.092s18.789 4.697 23.486 14.092l272.44 385.174 14.092 18.789c46.972 65.761 70.459 145.615 70.459 225.468 9.394 211.376-164.404 385.174-375.78 385.174v0zM385.174 448c-70.459 0-126.826 56.367-126.826 126.826s56.367 126.826 126.826 126.826c70.459 0 126.826-56.367 126.826-126.826s-56.367-126.826-126.826-126.826v0z" />
<glyph unicode="&#xe918;" glyph-name="phone" horiz-adv-x="1146" d="M1146.269 190.726c5.095-15.284 0-35.662-10.189-45.851l-137.552-168.119c-5.095-10.189-15.284-15.284-25.473-20.378s-20.378-10.189-30.567-15.284c0 0-5.095 0-5.095 0-5.095 0-10.189 0-15.284 0-15.284 0-40.756 0-71.323 0s-76.418 10.189-122.269 25.473c-50.945 15.284-106.985 40.756-168.119 71.323s-132.458 81.512-208.876 142.647c-61.134 45.851-106.985 91.701-147.741 137.552-45.851 40.756-76.418 81.512-101.891 122.269-25.473 35.662-45.851 71.323-61.134 106.985-15.284 30.567-25.473 61.134-30.567 81.512-5.095 25.473-10.189 45.851-10.189 56.040 0 15.284 0 20.378 0 25.473 0 10.189 5.095 20.378 5.095 35.662 5.095 10.189 10.189 20.378 20.378 25.473l137.552 168.119c10.189 10.189 20.378 20.378 35.662 20.378 5.095 0 15.284 0 25.473-5.095s15.284-10.189 20.378-20.378l147.741-219.065c10.189-10.189 10.189-25.473 10.189-40.756s-5.095-25.473-15.284-40.756l-50.945-61.134c0 0 0-5.095-5.095-10.189 0-5.095 0-5.095 0-10.189 5.095-15.284 15.284-35.662 25.473-50.945s25.473-40.756 50.945-61.134c20.378-25.473 50.945-50.945 91.701-81.512 35.662-30.567 71.323-56.040 101.891-71.323s50.945-30.567 71.323-35.662c20.378-5.095 35.662-10.189 40.756-10.189h15.284c0 0 5.095 0 5.095 0 5.095 0 5.095 5.095 5.095 5.095l61.134 71.323c10.189 15.284 25.473 20.378 45.851 25.473 15.284 0 25.473 0 30.567-5.095v0l234.348-106.985c20.378-15.284 30.567-25.473 35.662-40.756v0z" />
<glyph unicode="&#xe919;" glyph-name="todas" d="M889.629-64h-203.873c-74.136 0-129.738 60.235-129.738 129.738v203.873c0 74.136 60.235 129.738 129.738 129.738h203.873c74.136 0 129.738-60.235 129.738-129.738v-203.873c4.633-69.502-55.602-129.738-129.738-129.738v0zM690.389 315.946c-23.167 0-41.701-18.534-41.701-41.701v-203.873c0-23.167 18.534-41.701 41.701-41.701h203.873c23.167 0 41.701 18.534 41.701 41.701v203.873c0 23.167-18.534 41.701-41.701 41.701h-203.873zM333.611 496.652h-203.873c-69.502 0-129.738 55.602-129.738 129.738v203.873c0 69.502 60.235 129.738 129.738 129.738h203.873c74.136 0 129.738-60.235 129.738-129.738v-203.873c0-74.136-55.602-129.738-129.738-129.738v0zM129.738 871.964c-23.167 0-41.701-18.534-41.701-41.701v-203.873c0-23.167 18.534-41.701 41.701-41.701h203.873c23.167 0 41.701 18.534 41.701 41.701v203.873c0 23.167-18.534 41.701-41.701 41.701h-203.873zM333.611-64h-203.873c-74.136 0-129.738 60.235-129.738 129.738v203.873c0 74.136 60.235 134.371 129.738 134.371h203.873c74.136 0 129.738-60.235 129.738-129.738v-203.873c0-74.136-55.602-134.371-129.738-134.371v0zM129.738 315.946c-23.167 0-41.701-18.534-41.701-41.701v-203.873c0-23.167 18.534-41.701 41.701-41.701h203.873c23.167 0 41.701 18.534 41.701 41.701v203.873c0 23.167-18.534 41.701-41.701 41.701h-203.873zM889.629 496.652h-203.873c-69.502 0-129.738 55.602-129.738 129.738v203.873c0 69.502 60.235 129.738 134.371 129.738h203.873c74.136 0 129.738-60.235 129.738-129.738v-203.873c0-74.136-60.235-129.738-134.371-129.738v0zM690.389 871.964c-23.167 0-41.701-18.534-41.701-41.701v-203.873c0-23.167 18.534-41.701 41.701-41.701h203.873c23.167 0 41.701 18.534 41.701 41.701v203.873c0 23.167-18.534 41.701-41.701 41.701h-203.873z" />
<glyph unicode="&#xe91a;" glyph-name="youtube" d="M1013.8 652.8c0 0-10 70.6-40.8 101.6-39 40.8-82.6 41-102.6 43.4-143.2 10.4-358.2 10.4-358.2 10.4h-0.4c0 0-215 0-358.2-10.4-20-2.4-63.6-2.6-102.6-43.4-30.8-31-40.6-101.6-40.6-101.6s-10.2-82.8-10.2-165.8v-77.6c0-82.8 10.2-165.8 10.2-165.8s10-70.6 40.6-101.6c39-40.8 90.2-39.4 113-43.8 82-7.8 348.2-10.2 348.2-10.2s215.2 0.4 358.4 10.6c20 2.4 63.6 2.6 102.6 43.4 30.8 31 40.8 101.6 40.8 101.6s10.2 82.8 10.2 165.8v77.6c-0.2 82.8-10.4 165.8-10.4 165.8zM406.2 315.2v287.8l276.6-144.4-276.6-143.4z" />
<glyph unicode="&#xe91b;" glyph-name="play" d="M512 960c-280.652 0-512-231.348-512-512s231.348-512 512-512c280.652 0 512 231.348 512 512s-231.348 512-512 512v0zM409.6 216.652v462.696l307.2-231.348-307.2-231.348z" />
<glyph unicode="&#xe91d;" glyph-name="plus" d="M1024 451.969c0-47.628-39.69-87.318-87.318-87.318h-333.395v-333.395c0-47.628-39.69-87.318-87.318-87.318-23.814 0-47.628 7.938-63.504 23.814s-23.814 39.69-23.814 63.504v325.457h-341.333c-23.814 0-47.628 7.938-63.504 23.814-15.876 23.814-23.814 47.628-23.814 71.442 0 47.628 39.69 87.318 87.318 87.318h333.395v333.395c0 47.628 39.69 87.318 87.318 87.318s87.318-39.69 87.318-87.318v-333.395h333.395c55.566 0 95.256-39.69 95.256-87.318v0z" />
<glyph unicode="&#xe91f;" glyph-name="x" d="M672 448l344 344c8 8 8 24 0 32l-128 128c0 8-8 8-16 8s-8 0-16-8l-344-344-344 344c-8 8-24 8-32 0l-128-128c-8-8-8-24 0-32l344-344-344-344c-8-8-8-24 0-32l128-128c0-8 8-8 16-8s8 0 16 8l344 344 344-344c8-8 8-8 16-8s8 0 16 8l128 128c8 8 8 24 0 32l-344 344z" />
<glyph unicode="&#xe921;" glyph-name="spinner" d="M1024 448c-1.278 66.862-15.784 133.516-42.576 194.462-26.704 61-65.462 116.258-113.042 161.92-47.552 45.696-103.944 81.82-164.984 105.652-61.004 23.924-126.596 35.352-191.398 33.966-64.81-1.282-129.332-15.374-188.334-41.356-59.048-25.896-112.542-63.47-156.734-109.576-44.224-46.082-79.16-100.708-102.186-159.798-23.114-59.062-34.128-122.52-32.746-185.27 1.286-62.76 14.964-125.148 40.134-182.206 25.088-57.1 61.476-108.828 106.11-151.548 44.61-42.754 97.472-76.504 154.614-98.72 57.118-22.304 118.446-32.902 179.142-31.526 60.708 1.29 120.962 14.554 176.076 38.914 55.15 24.282 105.116 59.48 146.366 102.644 41.282 43.14 73.844 94.236 95.254 149.43 13.034 33.458 21.88 68.4 26.542 103.798 1.246-0.072 2.498-0.12 3.762-0.12 35.346 0 64 28.652 64 64 0 1.796-0.094 3.572-0.238 5.332h0.238zM922.306 278.052c-23.472-53.202-57.484-101.4-99.178-141.18-41.67-39.81-91-71.186-144.244-91.79-53.228-20.678-110.29-30.452-166.884-29.082-56.604 1.298-112.596 13.736-163.82 36.474-51.25 22.666-97.684 55.49-135.994 95.712-38.338 40.198-68.528 87.764-88.322 139.058-19.87 51.284-29.228 106.214-27.864 160.756 1.302 54.552 13.328 108.412 35.254 157.69 21.858 49.3 53.498 93.97 92.246 130.81 38.73 36.868 84.53 65.87 133.874 84.856 49.338 19.060 102.136 28.006 154.626 26.644 52.5-1.306 104.228-12.918 151.562-34.034 47.352-21.050 90.256-51.502 125.624-88.782 35.396-37.258 63.21-81.294 81.39-128.688 18.248-47.392 26.782-98.058 25.424-148.496h0.238c-0.144-1.76-0.238-3.536-0.238-5.332 0-33.012 24.992-60.174 57.086-63.624-6.224-34.822-16.53-68.818-30.78-100.992z" />
<glyph unicode="&#xe926;" glyph-name="twitter" horiz-adv-x="1263" d="M1263.252 840.374c-47.85-19.14-95.701-33.495-148.336-43.065 52.636 33.495 95.701 81.346 114.841 143.551-47.85-28.71-105.271-52.636-162.692-62.206-47.85 52.636-114.841 81.346-191.402 81.346-143.551 0-258.393-114.841-258.393-258.393 0-19.14 0-38.28 4.785-57.421-215.327 9.57-406.729 110.056-535.925 267.963-19.14-38.28-33.495-81.346-33.495-129.196 0-90.916 47.85-167.477 114.841-215.327-43.065 0-81.346 14.355-119.626 33.495v-4.785c0-124.411 90.916-229.682 205.757-253.607-19.14-4.785-38.28-9.57-62.206-9.57-14.355 0-33.495 0-47.85 4.785 33.495-105.271 129.196-177.047 244.037-181.832-90.916-71.776-200.972-110.056-320.598-110.056-19.14 0-43.065 0-62.206 4.785 114.841-71.776 248.822-114.841 397.159-114.841 478.505 0 736.897 392.374 736.897 736.897 0 9.57 0 23.925 0 33.495 43.065 33.495 90.916 81.346 124.411 133.981z" />
<glyph unicode="&#xe92a;" glyph-name="menu" d="M128 704h768v-86h-768v86zM128 406v84h768v-84h-768zM128 192v86h768v-86h-768z" />
<glyph unicode="&#xe92b;" glyph-name="minus" d="M128 490.667h768q17.667 0 30.167-12.5t12.5-30.167-12.5-30.167-30.167-12.5h-768q-17.667 0-30.167 12.5t-12.5 30.167 12.5 30.167 30.167 12.5z" />
</font>
</defs>
</svg>
